<?xml version="1.0" standalone="no"?>
<!DOCTYPE svg PUBLIC "-//W3C//DTD SVG 1.1//EN" "http://www.w3.org/Graphics/SVG/1.1/DTD/svg11.dtd" >
<svg>
<metadata>
Created by FontForge 20110222 at Sat Mar 31 10:50:11 2012
 By www-data
Copyright (c) 2011 by vernon adams. All rights reserved.
</metadata>
<defs>
<font id="Oswald-Bold" horiz-adv-x="1135" >
  <font-face 
    font-family="Oswald Bold"
    font-weight="700"
    font-stretch="normal"
    units-per-em="2048"
    panose-1="2 0 5 6 0 0 0 2 0 4"
    ascent="1638"
    descent="-410"
    x-height="1305"
    cap-height="1800"
    bbox="-90 -696 1942 2381"
    underline-thickness="102"
    underline-position="-205"
    unicode-range="U+0020-2122"
  />
    <missing-glyph />
    <glyph glyph-name="space" unicode=" " horiz-adv-x="278" 
 />
    <glyph glyph-name="exclam" unicode="!" horiz-adv-x="524" 
d="M199 462l-104 1338h343l-123 -1338h-116zM95 0v317h323v-317h-323z" />
    <glyph glyph-name="quotedbl" unicode="&#x22;" horiz-adv-x="758" 
d="M130 1202l-90 599h294l-1 -599h-203zM434 1202l-1 599h285l-102 -599h-182z" />
    <glyph glyph-name="numbersign" unicode="#" horiz-adv-x="1150" 
d="M153 0l88 616h-142v255h178l16 114h-194v255h231l80 561h209l-81 -561h142l80 561h209l-81 -561h136v-255h-173l-16 -114h189v-255h-226l-89 -616h-206l88 616h-143l-89 -616h-206zM485 871h142l16 114h-142z" />
    <glyph glyph-name="dollar" unicode="$" horiz-adv-x="1145" 
d="M529 -100v171c-311 27 -436 238 -436 497l364 69v-49c0 -89 9 -239 138 -239c86 0 103 61 103 123c0 121 -104 186 -209 269l-112 89c-140 111 -283 230 -283 457c0 264 176 423 435 447v197h96v-194c241 -12 430 -185 430 -416v-46l-373 -50c1 18 3 45 3 74
c0 73 -16 162 -112 162c-88 0 -121 -69 -121 -130c0 -105 67 -168 152 -232l123 -93c204 -154 330 -268 330 -527c0 -237 -196 -397 -432 -409v-170h-96z" />
    <glyph glyph-name="percent" unicode="%" horiz-adv-x="2041" 
d="M94 1295v6c1 303 96 499 385 499c287 0 385 -195 387 -497v-8c0 -297 -101 -511 -387 -511c-287 0 -385 214 -385 511zM360 1306v-11c0 -172 11 -303 119 -303s118 131 118 303v9c0 171 -7 287 -118 287c-110 0 -119 -115 -119 -285zM1170 511v9c2 301 97 496 385 496
c287 0 385 -194 387 -496v-9c0 -297 -101 -511 -387 -511c-287 0 -385 214 -385 511zM1436 517v-6c0 -172 11 -303 119 -303s118 131 118 303v5c0 173 -6 291 -118 291c-111 0 -119 -117 -119 -290zM634 0l577 1835h180l-578 -1835h-179z" />
    <glyph glyph-name="ampersand" unicode="&#x26;" horiz-adv-x="1194" 
d="M1129 262v-285c-20 -4 -40 -6 -60 -6c-104 0 -203 82 -274 150c-87 -98 -209 -151 -339 -151c-250 0 -390 185 -390 419c0 203 94 368 228 517c-60 133 -160 378 -160 528c0 221 131 400 366 400c232 0 395 -147 395 -383c0 -234 -122 -413 -280 -575l187 -312
c36 94 41 210 41 310h276c0 -252 -45 -378 -150 -532c39 -45 101 -75 160 -80zM507 1105c63 91 112 219 112 331c0 62 -20 147 -97 147c-76 0 -86 -93 -86 -150c0 -104 32 -233 71 -328zM606 313c-64 103 -128 207 -182 315c-26 -25 -46 -121 -46 -214
c0 -98 23 -193 86 -193c61 0 107 47 142 92z" />
    <glyph glyph-name="quotesingle" unicode="'" horiz-adv-x="356" 
d="M101 1201l-70 598h304l-71 -598h-163z" />
    <glyph glyph-name="parenleft" unicode="(" horiz-adv-x="696" 
d="M637 158v-222c-496 -3 -481 632 -481 985c0 354 -15 988 481 986v-222c-240 4 -194 -626 -194 -764c0 -137 -46 -767 194 -763z" />
    <glyph glyph-name="parenright" unicode=")" horiz-adv-x="696" 
d="M110 -64v222c239 -4 194 627 194 763c0 137 45 768 -194 764v222c495 2 482 -633 482 -986c0 -352 13 -988 -482 -985z" />
    <glyph glyph-name="asterisk" unicode="*" horiz-adv-x="913" 
d="M158 974l162 231l-244 94l74 197l223 -118l-27 264h250l-25 -265l223 120l74 -199l-246 -94l165 -230l-198 -116l-118 235l-117 -235z" />
    <glyph glyph-name="plus" unicode="+" horiz-adv-x="762" 
d="M70 583v223h195v194h222v-194h195v-223h-195v-194h-222v194h-195z" />
    <glyph glyph-name="comma" unicode="," horiz-adv-x="469" 
d="M153 -244l-40 166c72 0 80 -7 81 77h-110v318h323c0 -342 29 -603 -254 -561z" />
    <glyph glyph-name="hyphen" unicode="-" horiz-adv-x="429" 
d="M4 453v223h417v-223h-417z" />
    <glyph glyph-name="period" unicode="." horiz-adv-x="522" 
d="M99 0v317h325v-317h-325z" />
    <glyph glyph-name="slash" unicode="/" horiz-adv-x="895" 
d="M91 0l577 1835h180l-578 -1835h-179z" />
    <glyph glyph-name="zero" unicode="0" horiz-adv-x="1137" 
d="M84 528v741c0 312 143 565 485 565c340 0 484 -254 484 -565v-741c0 -301 -156 -563 -484 -563c-333 0 -485 259 -485 563zM704 528v741c0 91 -9 259 -135 259c-128 0 -134 -168 -134 -259v-741c0 -87 15 -258 134 -258c120 0 135 170 135 258z" />
    <glyph glyph-name="one" unicode="1" horiz-adv-x="676" 
d="M225 0v1337h-182v265c107 64 197 71 260 199h266v-1801h-344z" />
    <glyph glyph-name="two" unicode="2" horiz-adv-x="1067" 
d="M1018 1339c0 -418 -367 -735 -560 -993h560v-346h-958v309l438 627c82 117 174 256 174 403c0 78 -37 192 -132 192c-148 0 -134 -269 -134 -368h-345v113c0 320 129 559 479 559c308 0 478 -195 478 -496z" />
    <glyph glyph-name="three" unicode="3" horiz-adv-x="1094" 
d="M72 582h348c0 -100 -11 -311 135 -311c136 0 134 163 134 259c0 162 -78 263 -247 259v350c151 -4 247 28 247 198c0 93 -17 194 -134 194c-145 0 -135 -208 -135 -308h-349v114c0 307 172 499 484 499c311 0 484 -195 484 -499c0 -141 -58 -297 -182 -376
c135 -99 182 -271 182 -431c0 -323 -129 -565 -484 -565c-376 0 -478 239 -483 556v61z" />
    <glyph glyph-name="four" unicode="4" horiz-adv-x="1107" 
d="M62 437v282l440 1082h409v-1084h168v-280h-168v-437h-345v437h-504zM370 717h196v540z" />
    <glyph glyph-name="five" unicode="5" horiz-adv-x="1115" 
d="M95 571h346c-2 -170 4 -311 112 -311c171 0 156 266 156 385c0 93 -6 262 -135 262c-73 0 -123 -81 -146 -140h-295v1034h857v-342h-533v-325c57 35 109 59 175 59c332 0 417 -271 417 -553c0 -331 -78 -675 -480 -675c-380 0 -474 277 -474 606z" />
    <glyph glyph-name="six" unicode="6" horiz-adv-x="1112" 
d="M87 550v638c0 299 99 647 485 647c302 0 455 -227 455 -521v-32h-339c0 96 -4 248 -116 248c-127 0 -137 -228 -136 -352v-103c62 42 136 62 207 62c331 0 414 -256 414 -547c0 -309 -129 -619 -485 -619c-347 0 -485 298 -485 579zM438 762v-233c0 -87 15 -258 134 -258
c140 0 136 219 136 309c0 100 -2 266 -136 266c-57 0 -105 -38 -134 -84z" />
    <glyph glyph-name="seven" unicode="7" horiz-adv-x="827" 
d="M155 0l312 1496h-438v303h775v-177l-310 -1622h-339z" />
    <glyph glyph-name="eight" unicode="8" horiz-adv-x="1088" 
d="M544 1074c113 0 113 201 113 293c0 67 -11 194 -113 194c-101 0 -115 -125 -115 -194c0 -93 2 -293 115 -293zM214 952c-99 102 -132 247 -132 385c0 298 151 499 462 499c312 0 459 -203 459 -499c0 -138 -31 -284 -131 -385c133 -108 156 -261 156 -424
c0 -330 -122 -559 -484 -559c-360 0 -484 230 -484 559c0 162 20 316 154 424zM544 251c144 0 144 161 144 257c0 110 -13 296 -144 296c-130 0 -145 -186 -145 -296c0 -97 2 -257 145 -257z" />
    <glyph glyph-name="nine" unicode="9" 
d="M101 489v30h341c0 -94 3 -248 124 -248c149 0 138 298 138 399v45c-61 -34 -131 -50 -200 -50c-337 0 -423 257 -423 547c0 307 131 623 485 623c345 0 485 -323 485 -623v-560c0 -320 -96 -681 -485 -681c-312 0 -456 223 -465 518zM702 1034v237c0 87 -16 259 -136 259
c-135 0 -134 -209 -134 -302c0 -96 -2 -275 134 -275c55 0 107 36 136 81z" />
    <glyph glyph-name="colon" unicode=":" horiz-adv-x="518" 
d="M99 897v316h321v-316h-321zM99 151v315h321v-315h-321z" />
    <glyph glyph-name="semicolon" unicode=";" horiz-adv-x="510" 
d="M87 897v316h321v-316h-321zM154 -95l-40 166c72 0 80 -7 81 77h-110v318h323c0 -342 29 -603 -254 -561z" />
    <glyph glyph-name="less" unicode="&#x3c;" horiz-adv-x="865" 
d="M74 525v274l676 473v-293l-444 -315c148 -108 296 -213 444 -319v-292z" />
    <glyph glyph-name="equal" unicode="=" horiz-adv-x="762" 
d="M70 583v223h612v-223h-612zM70 258v222h612v-222h-612z" />
    <glyph glyph-name="greater" unicode="&#x3e;" horiz-adv-x="865" 
d="M115 53v292l444 319l-444 315v293l676 -473v-274z" />
    <glyph glyph-name="question" unicode="?" horiz-adv-x="974" 
d="M259 480v388c167 114 350 313 350 534c0 92 -45 139 -126 139c-79 0 -113 -75 -113 -159c0 -40 7 -85 19 -124l-314 -60c-19 73 -29 144 -29 210c0 242 131 427 437 427c294 0 463 -162 463 -453c0 -257 -130 -493 -353 -622v-280h-334zM259 0v324h334v-324h-334z" />
    <glyph glyph-name="at" unicode="@" horiz-adv-x="1727" 
d="M923 565v404c-2 21 -18 39 -40 39c-136 0 -124 -201 -124 -292c0 -67 13 -179 103 -179c19 0 39 5 61 28zM1245 152l108 -226c-133 -30 -279 -56 -416 -56c-621 0 -854 322 -854 921c0 489 291 828 791 828c517 0 781 -326 781 -828c0 -243 -109 -496 -385 -496
c-104 0 -208 37 -277 117c-68 -90 -120 -117 -176 -117c-231 0 -345 214 -345 421c0 198 63 524 321 524c51 0 101 -19 130 -63v54h287v-589c0 -41 -3 -105 55 -105c96 0 103 194 103 254c0 352 -105 606 -494 606c-356 0 -504 -279 -504 -606c0 -416 119 -697 567 -697
c102 0 211 27 308 58z" />
    <glyph glyph-name="A" unicode="A" horiz-adv-x="1117" 
d="M9 0l389 1800h322l388 -1800h-359l-74 385h-235l-70 -385h-361zM465 609h186l-91 668zM1013 10z" />
    <glyph glyph-name="B" unicode="B" horiz-adv-x="1140" 
d="M107 0v1800h371c308 0 552 -76 552 -465c0 -193 -92 -289 -273 -350c235 -57 321 -229 321 -454c0 -363 -173 -531 -527 -531h-444zM469 1092h62c138 0 167 113 167 252c0 214 -94 213 -229 212v-464zM471 257h34c192 0 220 91 220 299c0 173 -49 297 -218 297h-36v-596z
" />
    <glyph glyph-name="C" unicode="C" horiz-adv-x="1174" 
d="M84 601v596c0 356 121 638 522 638c373 0 505 -253 505 -600v-155h-358v166c0 134 -9 308 -147 308c-137 0 -158 -155 -158 -266v-777c0 -112 20 -265 158 -265c133 0 150 169 149 309v185h356v-152c-5 -324 -114 -623 -505 -623c-400 0 -522 289 -522 636zM587 0z" />
    <glyph glyph-name="D" unicode="D" horiz-adv-x="1164" 
d="M485 255c186 0 231 11 231 172v969c0 126 -77 147 -231 148v-1289zM107 0v1800h376c482 0 597 -174 597 -583v-590c0 -420 -83 -627 -601 -627h-372zM582 900z" />
    <glyph glyph-name="E" unicode="E" horiz-adv-x="881" 
d="M107 0v1800h751v-250h-387v-490h274v-256h-274v-554h387v-250h-751zM800 10z" />
    <glyph glyph-name="F" unicode="F" horiz-adv-x="856" 
d="M107 0v1800h751v-250h-387v-490h274v-256h-274v-804h-364z" />
    <glyph glyph-name="G" unicode="G" horiz-adv-x="1238" 
d="M84 563v634c0 361 127 638 531 638c380 0 515 -253 515 -600v-106h-348v126c0 132 -14 299 -167 299c-142 0 -167 -148 -167 -266v-777c0 -119 24 -265 167 -265s166 158 166 275v144h-206v261h570v-926h-250l-46 126c-61 -96 -187 -161 -306 -161
c-337 0 -459 319 -459 598zM619 0z" />
    <glyph glyph-name="H" unicode="H" horiz-adv-x="1205" 
d="M107 0v1800h364v-738h261v738h366v-1800h-366v803h-261v-803h-364zM603 900z" />
    <glyph glyph-name="I" unicode="I" horiz-adv-x="578" 
d="M107 0v1800h364v-1800h-364zM520 10z" />
    <glyph glyph-name="J" unicode="J" horiz-adv-x="691" 
d="M0 -34v256c174 -2 220 34 220 213v1365h364v-1368c0 -311 -66 -466 -405 -466h-179zM346 1800z" />
    <glyph glyph-name="K" unicode="K" horiz-adv-x="1149" 
d="M107 0v1800h364v-683l282 683h407l-367 -737l394 -1063h-378l-272 823l-66 -170v-653h-364zM594 0z" />
    <glyph glyph-name="L" unicode="L" horiz-adv-x="838" 
d="M107 0v1800h364v-1550h358v-250h-722zM426 0z" />
    <glyph glyph-name="M" unicode="M" horiz-adv-x="1470" 
d="M107 0v1800h436l192 -1200l207 1200h421v-1800h-268l-8 1266c-59 -389 -151 -877 -210 -1266h-272l-221 1274l-8 -1274h-269z" />
    <glyph glyph-name="N" unicode="N" horiz-adv-x="1173" 
d="M107 0v1801h262l395 -942v942h302v-1801h-252l-394 999v-999h-313zM587 0z" />
    <glyph glyph-name="O" unicode="O" horiz-adv-x="1221" 
d="M773 510v778c0 115 -24 266 -163 266c-138 0 -162 -153 -162 -266v-778c0 -114 23 -265 162 -265c141 0 163 149 163 265zM84 592v605c0 357 125 638 526 638s527 -281 527 -638v-596c0 -347 -128 -636 -527 -636c-397 0 -526 280 -526 627zM611 1800z" />
    <glyph glyph-name="P" unicode="P" horiz-adv-x="1022" 
d="M107 0v1800h435c324 0 449 -192 449 -510c0 -412 -196 -518 -518 -520v-770h-366zM474 1027c177 0 172 87 172 270c0 142 -1 244 -172 244v-514z" />
    <glyph glyph-name="Q" unicode="Q" horiz-adv-x="1228" 
d="M84 592v605c0 358 129 638 530 638s530 -280 530 -638v-596c0 -201 -50 -412 -213 -549c31 -67 160 -65 176 -65v-221c-244 0 -346 117 -400 202c-34 -4 -67 -5 -99 -5c-367 0 -524 264 -524 629zM780 511v777c0 116 -26 266 -166 266c-139 0 -166 -151 -166 -266v-777
c0 -116 26 -265 166 -265c142 0 166 147 166 265z" />
    <glyph glyph-name="R" unicode="R" horiz-adv-x="1122" 
d="M107 0v1800h396c348 0 574 -124 574 -474c0 -158 -22 -360 -245 -456c90 -286 181 -571 282 -870h-377l-206 829h-60v-829h-364zM471 1051h104c121 0 140 179 140 246c0 66 -14 236 -123 236h-121v-482zM567 0z" />
    <glyph glyph-name="S" unicode="S" horiz-adv-x="1053" 
d="M45 515l369 71c0 -158 13 -344 139 -344c86 0 108 62 108 138c0 150 -108 284 -213 376l-113 96c-142 120 -289 252 -289 511c0 295 205 474 508 474c256 0 459 -209 459 -464c0 -6 -1 -14 -1 -43l-376 -52c0 23 3 45 3 73c0 85 -19 207 -115 207
c-86 0 -120 -82 -120 -158c0 -197 175 -293 287 -395c185 -165 324 -334 324 -612c0 -258 -212 -430 -463 -430c-345 0 -493 270 -507 552zM525 0z" />
    <glyph glyph-name="T" unicode="T" horiz-adv-x="915" 
d="M278 0v1528h-264v272h887v-272h-259v-1528h-364zM458 900z" />
    <glyph glyph-name="U" unicode="U" horiz-adv-x="1248" 
d="M99 669v1131h364v-1120c0 -303 0 -434 161 -434c162 0 161 131 161 434v1120h364v-1131c0 -371 -67 -704 -525 -704c-457 0 -525 333 -525 704zM1123 10z" />
    <glyph glyph-name="V" unicode="V" horiz-adv-x="1044" 
d="M343 0l-331 1800h345l159 -1091l176 1091h340l-356 -1800h-333z" />
    <glyph glyph-name="W" unicode="W" horiz-adv-x="1464" 
d="M270 0l-249 1800h310l112 -1192l154 1192h267l151 -1185l117 1185h311l-252 -1800h-311l-151 1178l-148 -1178h-311zM732 1800z" />
    <glyph glyph-name="X" unicode="X" horiz-adv-x="1077" 
d="M23 0l291 931l-293 869h346l169 -538l182 538h338l-291 -863l287 -937h-343l-172 595l-170 -595h-344z" />
    <glyph glyph-name="Y" unicode="Y" horiz-adv-x="1027" 
d="M337 0v595l-338 1205h343l168 -791c61 260 124 531 185 791h333l-339 -1205v-595h-352zM514 1800z" />
    <glyph glyph-name="Z" unicode="Z" horiz-adv-x="998" 
d="M80 0v228l475 1321h-420v250h776v-229l-477 -1320h477v-250h-831zM499 1800z" />
    <glyph glyph-name="bracketleft" unicode="[" horiz-adv-x="779" 
d="M156 -64v1971h547v-158h-259v-1655h259v-158h-547z" />
    <glyph glyph-name="backslash" unicode="\" horiz-adv-x="629" 
d="M265 0l-197 1843h288l198 -1843h-289z" />
    <glyph glyph-name="bracketright" unicode="]" horiz-adv-x="728" 
d="M76 -64v128h256v1664h-256v128h512v-1920h-512z" />
    <glyph glyph-name="asciicircum" unicode="^" horiz-adv-x="962" 
d="M65 907l271 676h277l271 -676h-290l-120 418l-119 -418h-290z" />
    <glyph glyph-name="underscore" unicode="_" horiz-adv-x="829" 
d="M6 0v223h806v-223h-806z" />
    <glyph glyph-name="grave" unicode="`" horiz-adv-x="640" 
d="M353 1393l-277 442h346l136 -442h-205zM317 1305z" />
    <glyph glyph-name="a" unicode="a" horiz-adv-x="976" 
d="M620 0l-33 135c-42 -130 -140 -164 -259 -164c-200 0 -270 168 -270 320c0 322 223 431 493 542v110c0 87 -18 137 -75 137c-78 0 -81 -73 -81 -137v-74h-327c0 298 152 466 441 466c198 0 376 -166 376 -368v-620c0 -120 16 -230 43 -347h-308zM552 295v321
c-87 -70 -166 -164 -166 -294c0 -44 14 -97 68 -97c45 0 75 41 98 70zM878 10z" />
    <glyph glyph-name="b" unicode="b" horiz-adv-x="999" 
d="M583 319v675c0 39 -5 86 -56 86c-39 0 -76 -53 -95 -78v-696c18 -25 55 -81 95 -81c52 0 56 52 56 94zM95 0v1800h337v-583c51 66 129 118 217 118c157 0 271 -154 271 -314v-771c0 -145 -110 -279 -261 -279c-91 0 -174 49 -227 127v-98h-337z" />
    <glyph glyph-name="c" unicode="c" horiz-adv-x="928" 
d="M78 334v560c0 267 121 441 401 441c281 0 401 -173 401 -441v-114h-331v149c0 90 -7 151 -70 151c-53 0 -64 -57 -64 -99v-646c0 -44 6 -110 64 -110c66 0 70 59 70 165v139h331v-195c0 -224 -188 -363 -401 -363c-212 0 -401 140 -401 363zM464 0z" />
    <glyph glyph-name="d" unicode="d" horiz-adv-x="999" 
d="M567 297v708c-19 25 -56 75 -95 75c-51 0 -56 -47 -56 -86v-675c0 -42 4 -94 56 -94c40 0 77 47 95 72zM79 250v771c0 160 114 314 271 314c88 0 166 -52 217 -118v583h337v-1800h-337v98c-53 -78 -136 -127 -227 -127c-151 0 -261 134 -261 279zM500 653z" />
    <glyph glyph-name="e" unicode="e" horiz-adv-x="940" 
d="M78 339v555c0 267 121 441 401 441c281 0 401 -173 401 -441v-270h-465v-289c0 -43 5 -110 64 -110c60 0 70 62 70 118v143h331v-147c0 -224 -188 -368 -401 -368c-212 0 -401 145 -401 368zM415 801h131v180c0 45 -12 99 -67 99c-53 0 -64 -57 -64 -99v-180zM846 10z
" />
    <glyph glyph-name="f" unicode="f" horiz-adv-x="647" 
d="M141 0v1080h-76v225h76v2c3 211 35 428 291 428c95 0 212 -14 212 -14v-252s-69 6 -88 6c-53 0 -78 -23 -78 -109v-61h163v-225h-163v-1080h-337z" />
    <glyph glyph-name="g" unicode="g" horiz-adv-x="965" 
d="M338 339c0 -119 625 -38 625 -334c0 -286 -214 -346 -450 -346c-162 0 -481 13 -481 235c0 94 57 192 137 250c-36 18 -117 65 -117 104c0 54 92 174 133 226c-62 113 -102 247 -102 374c0 246 112 487 397 487c86 0 175 -22 232 -83c57 65 161 83 245 83h42l-28 -241
c-49 0 -107 -8 -143 -44c39 -70 42 -153 42 -227c0 -236 -142 -445 -401 -445c-41 0 -108 15 -108 15s-23 -45 -23 -54zM472 632c81 0 82 171 82 232c0 58 -1 238 -77 238c-79 0 -82 -138 -82 -251c0 -58 1 -219 77 -219zM368 79h-24c-21 -33 -45 -79 -45 -125
c0 -55 163 -59 222 -59c31 0 120 -5 120 68c0 102 -183 112 -273 116zM483 1305z" />
    <glyph glyph-name="h" unicode="h" horiz-adv-x="1005" 
d="M94 0v1800h337v-588c62 70 156 123 256 123c145 0 231 -153 231 -284v-1051h-337v963c0 37 10 117 -46 117c-43 0 -83 -50 -104 -75v-1005h-337zM503 653z" />
    <glyph glyph-name="i" unicode="i" horiz-adv-x="529" 
d="M96 0v1305h337v-1305h-337zM96 1419v315h337v-315h-337z" />
    <glyph glyph-name="j" unicode="j" horiz-adv-x="572" 
d="M-21 -284v244c28 -8 59 -16 88 -16c62 0 76 59 76 111v1250h335v-1279c0 -205 -109 -337 -320 -337c-60 0 -121 12 -179 27zM143 1419v315h335v-315h-335z" />
    <glyph glyph-name="k" unicode="k" horiz-adv-x="981" 
d="M99 0v1800h337v-948l206 453h361l-321 -551l320 -754h-349l-172 582l-45 -76v-506h-337zM501 0z" />
    <glyph glyph-name="l" unicode="l" horiz-adv-x="529" 
d="M96 0v1800h337v-1800h-337zM509 1305z" />
    <glyph glyph-name="m" unicode="m" horiz-adv-x="1473" 
d="M94 0v1305h337v-93c60 70 150 123 246 123c90 0 167 -67 203 -147c63 85 162 147 272 147c145 0 234 -153 234 -284v-1051h-337v984c0 33 0 96 -49 96c-34 0 -76 -53 -92 -74v-1006h-337v986c0 32 -1 94 -46 94c-39 0 -76 -50 -95 -75v-1005h-336z" />
    <glyph glyph-name="n" unicode="n" horiz-adv-x="1005" 
d="M94 0v1305h337v-92c62 70 156 121 256 121c145 0 231 -151 231 -282v-1052h-337v993c0 28 0 87 -56 87c-39 0 -75 -46 -94 -68v-1012h-337zM503 0z" />
    <glyph glyph-name="o" unicode="o" horiz-adv-x="973" 
d="M78 339v555c0 267 118 440 406 440s411 -172 411 -440v-555c0 -224 -193 -368 -411 -368c-217 0 -406 145 -406 368zM561 335v646c0 45 -14 99 -77 99c-61 0 -69 -57 -69 -99v-646c0 -44 2 -110 69 -110c69 0 77 64 77 110zM487 1305z" />
    <glyph glyph-name="p" unicode="p" horiz-adv-x="999" 
d="M583 319v675c0 39 -5 86 -56 86c-39 0 -76 -50 -95 -75v-708c18 -25 55 -72 95 -72c52 0 56 52 56 94zM95 -371v1676h337v-88c51 66 129 118 217 118c157 0 271 -154 271 -314v-771c0 -145 -110 -279 -261 -279c-91 0 -174 49 -227 127v-469h-337z" />
    <glyph glyph-name="q" unicode="q" horiz-adv-x="979" 
d="M548 301v708c-16 22 -49 71 -85 71c-43 0 -46 -46 -46 -84v-687c0 -39 4 -84 46 -84c35 0 68 51 85 76zM548 -371v460c-49 -66 -123 -118 -207 -118c-151 0 -259 139 -259 284v801c0 145 108 279 259 279c83 0 158 -49 207 -127v97h337v-1676h-337z" />
    <glyph glyph-name="r" unicode="r" horiz-adv-x="714" 
d="M94 0v1305h335v-106c43 70 103 125 180 125c31 0 60 -5 91 -10v-284c-37 4 -92 10 -131 10c-92 0 -140 -59 -140 -164v-876h-335zM357 0z" />
    <glyph glyph-name="s" unicode="s" horiz-adv-x="867" 
d="M38 315l258 92c22 -67 61 -189 145 -189c50 0 63 32 63 74c0 92 -95 171 -200 261l-55 47c-117 102 -229 221 -229 383c0 235 208 351 422 351c201 0 351 -180 402 -365l-242 -83c-28 72 -79 199 -170 199c-50 0 -74 -43 -74 -82c0 -66 94 -150 182 -224l62 -55
c115 -104 235 -234 235 -389c0 -215 -174 -364 -381 -364c-210 0 -362 145 -418 344zM424 0z" />
    <glyph glyph-name="t" unicode="t" horiz-adv-x="668" 
d="M117 448v632h-96v225h96v429h337v-429h162v-225h-162v-713c0 -68 20 -107 91 -107c33 0 65 1 98 6v-261c-66 -20 -147 -20 -213 -20c-284 0 -313 235 -313 463zM334 653z" />
    <glyph glyph-name="u" unicode="u" horiz-adv-x="1006" 
d="M87 253v1052h337v-970c0 -37 0 -110 46 -110c44 0 84 48 105 74v1006h337v-1305h-337v113c-63 -77 -158 -142 -257 -142c-146 0 -231 151 -231 282zM905 10z" />
    <glyph glyph-name="v" unicode="v" horiz-adv-x="892" 
d="M282 0l-271 1305h316l129 -881l109 881h316l-258 -1305h-341z" />
    <glyph glyph-name="w" unicode="w" horiz-adv-x="1273" 
d="M218 0l-191 1305h281l104 -805l108 805h254l98 -821l114 821h260l-193 -1305h-290l-123 771l-132 -771h-290zM637 1305z" />
    <glyph glyph-name="x" unicode="x" horiz-adv-x="922" 
d="M34 0l240 688l-241 617h333l95 -409c31 137 65 272 95 409h333l-239 -617l238 -688h-332l-96 410l-94 -410h-332z" />
    <glyph glyph-name="y" unicode="y" horiz-adv-x="872" 
d="M270 117c0 294 -218 1027 -252 1188h307l121 -728l106 728h309l-285 -1340c-50 -234 -232 -276 -446 -276h-43v233c135 3 183 61 183 195zM436 1305z" />
    <glyph glyph-name="z" unicode="z" horiz-adv-x="813" 
d="M57 0v228l359 834h-303v243h651v-223l-362 -838h362v-244h-707zM407 1305z" />
    <glyph glyph-name="braceleft" unicode="{" horiz-adv-x="762" 
d="M682 158v-222c-404 0 -482 228 -482 596c0 124 25 248 -130 246v287c156 -1 130 246 130 334c0 418 118 508 482 508v-222c-194 1 -195 -72 -195 -286c0 -143 -27 -378 -177 -465c143 -82 167 -237 175 -388c11 -198 -9 -389 197 -388z" />
    <glyph glyph-name="bar" unicode="|" horiz-adv-x="429" 
d="M134 -130v2102h222v-2102h-222z" />
    <glyph glyph-name="braceright" unicode="}" horiz-adv-x="762" 
d="M70 -64v222c196 -1 188 174 196 362c7 155 25 318 176 402c-148 93 -177 361 -177 517c0 184 -1 247 -195 246v222c364 0 483 -82 483 -468c0 -97 -26 -375 129 -374v-287c-154 2 -129 -123 -129 -246c0 -369 -78 -596 -483 -596z" />
    <glyph glyph-name="asciitilde" unicode="~" horiz-adv-x="1028" 
d="M139 842c-1 160 69 305 234 305c109 0 215 -87 285 -87c34 0 37 44 37 69h181c1 -159 -69 -307 -234 -307c-109 0 -228 88 -287 88c-33 0 -34 -44 -34 -68h-182z" />
    <glyph glyph-name="nbspace" unicode="&#xa0;" horiz-adv-x="336" 
 />
    <glyph glyph-name="exclamdown" unicode="&#xa1;" horiz-adv-x="524" 
d="M334 1337l104 -1338h-343l123 1338h116zM438 1800v-318h-323v318h323z" />
    <glyph glyph-name="cent" unicode="&#xa2;" horiz-adv-x="965" 
d="M447 -263v295c-195 17 -360 158 -360 367v445c0 253 109 421 360 437v287h90v-287c246 -19 352 -185 352 -437v-56h-332l1 74c1 89 -7 151 -70 151c-53 0 -64 -57 -64 -99v-508c0 -44 6 -110 64 -110c57 0 71 44 71 125c0 13 -1 26 -2 105h332v-127
c0 -207 -160 -346 -352 -367v-295h-90z" />
    <glyph glyph-name="sterling" unicode="&#xa3;" horiz-adv-x="1137" 
d="M84 0v186l121 59v480h-121v259h121v222c0 294 49 628 436 628c365 0 398 -271 398 -529h-327c0 76 0 247 -71 247c-63 0 -71 -193 -71 -348v-220h245v-259h-245v-441h459v-284h-945z" />
    <glyph glyph-name="currency" unicode="&#xa4;" horiz-adv-x="1054" 
d="M120 579l86 86c-44 68 -63 149 -63 232c0 81 19 162 63 230l-86 86l90 90l86 -86c59 39 134 63 231 63s172 -24 231 -63l86 86l90 -90l-87 -87c44 -67 64 -148 64 -229c0 -83 -20 -164 -64 -232l87 -86l-90 -90l-86 86c-59 -39 -134 -63 -231 -63s-172 24 -231 63
l-86 -86zM335 897c0 -110 69 -215 192 -215c134 0 192 107 192 214s-57 214 -192 214s-192 -105 -192 -213z" />
    <glyph glyph-name="yen" unicode="&#xa5;" horiz-adv-x="1095" 
d="M397 0v259h-195v199h195v102h-195v196h146c-98 362 -199 724 -297 1087h295l194 -901l193 901h294l-299 -1087h150v-196h-194v-102h194v-199h-194v-259h-287z" />
    <glyph glyph-name="brokenbar" unicode="&#xa6;" horiz-adv-x="441" 
d="M98 -15v665h234v-665h-234zM98 900v665h234v-665h-234z" />
    <glyph glyph-name="section" unicode="&#xa7;" horiz-adv-x="1028" 
d="M623 339c0 300 -519 250 -519 612c0 130 57 245 174 306c-89 57 -174 133 -174 247c0 240 179 357 404 357s358 -161 406 -365l-220 -73c-30 78 -88 196 -186 196c-72 0 -115 -43 -115 -115c0 -99 118 -128 186 -170c163 -99 331 -233 331 -427
c0 -120 -47 -225 -149 -290c81 -70 149 -167 149 -278c0 -240 -177 -357 -402 -357c-228 0 -355 162 -407 366l221 73c28 -78 89 -197 186 -197c72 0 115 43 115 115zM541 795c43 23 82 58 82 112c0 42 -58 101 -106 142l-43 35c-45 -28 -81 -79 -81 -133
c0 -82 92 -117 148 -156z" />
    <glyph glyph-name="dieresis" unicode="&#xa8;" horiz-adv-x="927" 
d="M116 1492v308h303v-308h-303zM569 1492v308h304v-308h-304zM494.5 1305z" />
    <glyph glyph-name="copyright" unicode="&#xa9;" horiz-adv-x="1619" 
d="M896 614h210c0 -223 -85 -395 -303 -395c-305 0 -311 265 -311 497c0 245 3 507 318 507c230 0 298 -174 298 -372h-214c0 55 1 197 -82 197c-86 0 -125 -68 -125 -318c0 -295 42 -332 116 -332c96 0 93 150 93 216zM799 163c301 0 514 268 514 556s-213 556 -514 556
s-515 -267 -515 -556s214 -556 515 -556zM799 -15c-404 0 -716 339 -716 738c0 398 312 738 716 738c405 0 717 -340 717 -738c0 -397 -313 -738 -717 -738z" />
    <glyph glyph-name="ordfeminine" unicode="&#xaa;" horiz-adv-x="906" 
d="M554 0v85c-42 -58 -117 -96 -190 -96c-114 0 -209 96 -209 209c0 206 217 265 381 317v86c0 41 -4 125 -63 125c-72 0 -77 -101 -77 -152h-208c2 175 99 327 289 327c444 0 232 -610 301 -901h-224zM536 239v164c-54 -31 -156 -86 -156 -159c0 -38 16 -71 58 -71
c41 0 80 29 98 66z" />
    <glyph glyph-name="guillemotleft" unicode="&#xab;" horiz-adv-x="1054" 
d="M527 64l-448 512v128l448 512v-320l-256 -255l256 -257v-320zM975 64l-448 512v128l448 512v-320l-256 -255l256 -257v-320z" />
    <glyph glyph-name="logicalnot" unicode="&#xac;" horiz-adv-x="829" 
d="M136 453v223h547v-417h-158v194h-389z" />
    <glyph glyph-name="uni00AD" unicode="&#xad;" horiz-adv-x="804" 
d="M142 433v255h541v-255h-541z" />
    <glyph glyph-name="registered" unicode="&#xae;" horiz-adv-x="1619" 
d="M1101 269c132 104 212 273 212 450c0 288 -213 556 -514 556c-90 0 -172 -24 -243 -65h235c195 0 287 -101 287 -292c0 -102 -38 -183 -126 -236c25 -135 97 -284 149 -413zM799 -15c-404 0 -716 339 -716 738c0 398 312 738 716 738c405 0 717 -340 717 -738
c0 -397 -313 -738 -717 -738zM534 251v946c-154 -100 -250 -284 -250 -478c0 -289 214 -556 515 -556c105 0 201 33 279 88h-171l-129 390h-58v-390h-186zM720 766c119 0 168 34 168 156c0 77 -23 140 -111 140h-57v-296z" />
    <glyph glyph-name="macron" unicode="&#xaf;" horiz-adv-x="429" 
d="M-36 1457v193h507v-193h-507zM217.5 1305z" />
    <glyph glyph-name="degree" unicode="&#xb0;" horiz-adv-x="1095" 
d="M540 1055c-247 0 -402 159 -402 404c0 246 156 402 402 402c247 0 404 -156 404 -402s-155 -404 -404 -404zM540 1255c118 0 180 94 180 203c0 110 -61 202 -180 202c-117 0 -180 -91 -180 -201c0 -109 63 -204 180 -204z" />
    <glyph glyph-name="plusminus" unicode="&#xb1;" horiz-adv-x="895" 
d="M137 0v223h610v-223h-610zM330 389v194h-193v223h193v194h224v-194h193v-223h-193v-194h-224z" />
    <glyph glyph-name="twosuperior" unicode="&#xb2;" horiz-adv-x="696" 
d="M617 1245c0 -154 -230 -398 -310 -503h310v-159h-547v148c43 57 324 362 324 514c0 37 6 115 -50 115c-58 0 -51 -91 -51 -129h-223c0 173 95 287 274 287c171 0 273 -103 273 -273z" />
    <glyph glyph-name="threesuperior" unicode="&#xb3;" horiz-adv-x="829" 
d="M136 935h222c0 -39 -6 -129 51 -129c56 0 51 77 51 115c0 94 -35 116 -130 116v158c96 0 130 22 130 115c0 39 5 116 -51 116c-57 0 -51 -93 -51 -130h-222c0 172 94 287 273 287c172 0 274 -102 274 -273c0 -95 -45 -160 -132 -195c86 -35 132 -98 132 -194
c0 -170 -101 -273 -274 -273c-179 0 -273 114 -273 287z" />
    <glyph glyph-name="acute" unicode="&#xb4;" horiz-adv-x="638" 
d="M113 1393l136 442h345l-277 -442h-204zM353.5 1305z" />
    <glyph glyph-name="paragraph" unicode="&#xb6;" horiz-adv-x="1020" 
d="M394 0v887c-208 5 -371 128 -371 346c0 261 192 350 427 350h493v-1583h-209v887h-113v-887h-227z" />
    <glyph glyph-name="periodcentered" unicode="&#xb7;" horiz-adv-x="520" 
d="M99 679v315h323v-315h-323z" />
    <glyph glyph-name="cedilla" unicode="&#xb8;" horiz-adv-x="585" 
d="M132 -561v161c30 0 221 -12 221 42c0 61 -122 100 -165 116v242h171v-129c89 -42 221 -119 221 -233c0 -198 -311 -199 -448 -199zM356 0z" />
    <glyph glyph-name="onesuperior" unicode="&#xb9;" horiz-adv-x="562" 
d="M198 648v583h-129v153c100 50 195 112 266 199h86v-935h-223z" />
    <glyph glyph-name="ordmasculine" unicode="&#xba;" horiz-adv-x="965" 
d="M114 430v322c0 258 81 444 369 444c270 0 369 -202 369 -444v-322c0 -245 -98 -445 -369 -445c-288 0 -369 186 -369 445zM594 471v239c0 95 15 254 -116 254c-129 0 -120 -161 -120 -254v-239c0 -92 -9 -255 120 -255c131 0 116 160 116 255z" />
    <glyph glyph-name="guillemotright" unicode="&#xbb;" horiz-adv-x="1054" 
d="M527 64v320l256 257l-256 255v320l448 -512v-128zM79 64v320l256 257l-256 255v320l448 -512v-128z" />
    <glyph glyph-name="onequarter" unicode="&#xbc;" horiz-adv-x="1695" 
d="M198 648v583h-129v153c100 50 195 112 266 199h86v-935h-223zM424 0l577 1835h180l-578 -1835h-179zM936 244v148l351 593h195v-583h130v-158h-130v-259h-222v259h-324zM1167 402h93v184z" />
    <glyph glyph-name="onehalf" unicode="&#xbd;" horiz-adv-x="1694" 
d="M198 648v583h-129v153c100 50 195 112 266 199h86v-935h-223zM424 0l577 1835h180l-578 -1835h-179zM1615 647c0 -154 -230 -398 -310 -503h310v-159h-547v148c43 57 324 362 324 514c0 37 6 115 -50 115c-58 0 -51 -91 -51 -129h-223c0 173 95 287 274 287
c171 0 273 -103 273 -273z" />
    <glyph glyph-name="threequarters" unicode="&#xbe;" horiz-adv-x="1895" 
d="M136 935h222c0 -39 -6 -129 51 -129c56 0 51 77 51 115c0 94 -35 116 -130 116v158c96 0 130 22 130 115c0 39 5 116 -51 116c-57 0 -51 -93 -51 -130h-222c0 172 94 287 273 287c172 0 274 -102 274 -273c0 -95 -45 -160 -132 -195c86 -35 132 -98 132 -194
c0 -170 -101 -273 -274 -273c-179 0 -273 114 -273 287zM1069 244v148l351 593h195v-583h130v-158h-130v-259h-222v259h-324zM1300 402h93v184zM587 0l577 1835h180l-578 -1835h-179z" />
    <glyph glyph-name="questiondown" unicode="&#xbf;" horiz-adv-x="1182" 
d="M825 1320v-388c-167 -114 -350 -313 -350 -534c0 -92 45 -139 126 -139c79 0 113 75 113 159c0 40 -7 85 -19 124l314 60c19 -73 29 -144 29 -210c0 -242 -131 -427 -437 -427c-294 0 -463 162 -463 453c0 257 130 493 353 622v280h334zM825 1800v-324h-334v324h334z" />
    <glyph glyph-name="Agrave" unicode="&#xc0;" 
d="M9 0l389 1800h322l388 -1800h-359l-74 385h-235l-70 -385h-361zM465 609h186l-91 668zM465 1937l-277 442h346l136 -442h-205zM429 1849z" />
    <glyph glyph-name="Aacute" unicode="&#xc1;" 
d="M9 0l389 1800h322l388 -1800h-359l-74 385h-235l-70 -385h-361zM465 609h186l-91 668zM465 1937l136 442h345l-277 -442h-204zM705.5 1849z" />
    <glyph glyph-name="Acircumflex" unicode="&#xc2;" 
d="M9 0l389 1800h322l388 -1800h-359l-74 385h-235l-70 -385h-361zM465 609h186l-91 668zM219 1937l201 406h290l206 -406h-275l-75 202l-73 -202h-274zM567.5 1849z" />
    <glyph glyph-name="Atilde" unicode="&#xc3;" 
d="M9 0l389 1800h322l388 -1800h-359l-74 385h-235l-70 -385h-361zM465 609h186l-91 668zM396 1948h-167c0 152 24 299 185 299c130 0 239 -58 301 -58c35 0 35 22 35 46h155c0 -108 -12 -298 -156 -298c-99 0 -209 73 -304 73c-52 0 -49 -34 -49 -62zM567 1823z" />
    <glyph glyph-name="Adieresis" unicode="&#xc4;" 
d="M9 0l389 1800h322l388 -1800h-359l-74 385h-235l-70 -385h-361zM465 609h186l-91 668zM189 1937v308h303v-308h-303zM642 1937v308h304v-308h-304zM567.5 1750z" />
    <glyph glyph-name="Aring" unicode="&#xc5;" 
d="M9 0l389 1800h322l388 -1800h-359l-74 385h-235l-70 -385h-361zM465 609h186l-91 668zM588 1970c58 0 78 70 78 117c0 46 -20 119 -78 119c-59 0 -81 -69 -81 -117c0 -49 21 -119 81 -119zM335 2088c0 149 109 239 253 239c143 0 253 -91 253 -239
c0 -149 -109 -239 -253 -239s-253 90 -253 239zM588 1716z" />
    <glyph glyph-name="AE" unicode="&#xc6;" horiz-adv-x="1609" 
d="M44 0l773 1800h761v-250h-387v-490h274v-256h-274v-554h387v-250h-724v385h-284l-142 -385h-384zM643 609h211v574zM805 1800z" />
    <glyph glyph-name="Ccedilla" unicode="&#xc7;" horiz-adv-x="1174" 
d="M84 601v596c0 356 121 638 522 638c373 0 505 -253 505 -600v-155h-358v166c0 134 -9 308 -147 308c-137 0 -158 -155 -158 -266v-777c0 -112 20 -265 158 -265c133 0 150 169 149 309v185h356v-152c-5 -324 -114 -623 -505 -623c-400 0 -522 289 -522 636zM456 -577v161
c30 0 221 -12 221 42c0 61 -122 100 -165 116v242h171v-129c89 -42 221 -119 221 -233c0 -198 -311 -199 -448 -199zM680 -16z" />
    <glyph glyph-name="Egrave" unicode="&#xc8;" horiz-adv-x="889" 
d="M107 0v1800h751v-250h-387v-490h274v-256h-274v-554h387v-250h-751zM380 1937l-277 442h346l136 -442h-205zM344 1849z" />
    <glyph glyph-name="Eacute" unicode="&#xc9;" horiz-adv-x="889" 
d="M107 0v1800h751v-250h-387v-490h274v-256h-274v-554h387v-250h-751zM381 1937l136 442h345l-277 -442h-204zM621.5 1849z" />
    <glyph glyph-name="Ecircumflex" unicode="&#xca;" horiz-adv-x="889" 
d="M107 0v1800h751v-250h-387v-490h274v-256h-274v-554h387v-250h-751zM134 1937l201 406h290l206 -406h-275l-75 202l-73 -202h-274zM482.5 1849z" />
    <glyph glyph-name="Edieresis" unicode="&#xcb;" horiz-adv-x="889" 
d="M107 0v1800h751v-250h-387v-490h274v-256h-274v-554h387v-250h-751zM104 1937v308h303v-308h-303zM557 1937v308h304v-308h-304zM482.5 1750z" />
    <glyph glyph-name="Igrave" unicode="&#xcc;" horiz-adv-x="578" 
d="M107 0v1800h364v-1800h-364zM187 1937l-277 442h346l136 -442h-205zM151 1849z" />
    <glyph glyph-name="Iacute" unicode="&#xcd;" horiz-adv-x="578" 
d="M107 0v1800h364v-1800h-364zM187 1937l136 442h345l-277 -442h-204zM427.5 1849z" />
    <glyph glyph-name="Icircumflex" unicode="&#xce;" horiz-adv-x="578" 
d="M107 0v1800h364v-1800h-364zM-59 1937l201 406h290l206 -406h-275l-75 202l-73 -202h-274zM289.5 1849z" />
    <glyph glyph-name="Idieresis" unicode="&#xcf;" horiz-adv-x="578" 
d="M107 0v1800h364v-1800h-364zM-90 1937v308h303v-308h-303zM363 1937v308h304v-308h-304zM288.5 1750z" />
    <glyph glyph-name="Eth" unicode="&#xd0;" horiz-adv-x="1156" 
d="M97 0v829h-92v183h92v788h376c482 0 597 -174 597 -583v-590c0 -420 -83 -627 -601 -627h-372zM461 255h15c180 1 230 13 230 172v969c0 127 -78 147 -234 148h-11v-532h124v-183h-124v-574z" />
    <glyph glyph-name="Ntilde" unicode="&#xd1;" horiz-adv-x="1173" 
d="M107 0v1801h262l395 -942v942h302v-1801h-252l-394 999v-999h-313zM416 1948h-167c0 152 24 299 185 299c130 0 239 -58 301 -58c35 0 35 22 35 46h155c0 -108 -12 -298 -156 -298c-99 0 -209 73 -304 73c-52 0 -49 -34 -49 -62zM587 1823z" />
    <glyph glyph-name="Ograve" unicode="&#xd2;" horiz-adv-x="1221" 
d="M773 510v778c0 115 -24 266 -163 266c-138 0 -162 -153 -162 -266v-778c0 -114 23 -265 162 -265c141 0 163 149 163 265zM84 592v605c0 357 125 638 526 638s527 -281 527 -638v-596c0 -347 -128 -636 -527 -636c-397 0 -526 280 -526 627zM508 1937l-277 442h346
l136 -442h-205zM472 1849z" />
    <glyph glyph-name="Oacute" unicode="&#xd3;" horiz-adv-x="1221" 
d="M773 510v778c0 115 -24 266 -163 266c-138 0 -162 -153 -162 -266v-778c0 -114 23 -265 162 -265c141 0 163 149 163 265zM84 592v605c0 357 125 638 526 638s527 -281 527 -638v-596c0 -347 -128 -636 -527 -636c-397 0 -526 280 -526 627zM509 1937l136 442h345
l-277 -442h-204zM749.5 1849z" />
    <glyph glyph-name="Ocircumflex" unicode="&#xd4;" horiz-adv-x="1221" 
d="M773 510v778c0 115 -24 266 -163 266c-138 0 -162 -153 -162 -266v-778c0 -114 23 -265 162 -265c141 0 163 149 163 265zM84 592v605c0 357 125 638 526 638s527 -281 527 -638v-596c0 -347 -128 -636 -527 -636c-397 0 -526 280 -526 627zM262 1937l201 406h290
l206 -406h-275l-75 202l-73 -202h-274zM610.5 1849z" />
    <glyph glyph-name="Otilde" unicode="&#xd5;" horiz-adv-x="1221" 
d="M773 510v778c0 115 -24 266 -163 266c-138 0 -162 -153 -162 -266v-778c0 -114 23 -265 162 -265c141 0 163 149 163 265zM84 592v605c0 357 125 638 526 638s527 -281 527 -638v-596c0 -347 -128 -636 -527 -636c-397 0 -526 280 -526 627zM440 1948h-167
c0 152 24 299 185 299c130 0 239 -58 301 -58c35 0 35 22 35 46h155c0 -108 -12 -298 -156 -298c-99 0 -209 73 -304 73c-52 0 -49 -34 -49 -62zM611 1823z" />
    <glyph glyph-name="Odieresis" unicode="&#xd6;" horiz-adv-x="1221" 
d="M773 510v778c0 115 -24 266 -163 266c-138 0 -162 -153 -162 -266v-778c0 -114 23 -265 162 -265c141 0 163 149 163 265zM84 592v605c0 357 125 638 526 638s527 -281 527 -638v-596c0 -347 -128 -636 -527 -636c-397 0 -526 280 -526 627zM232 1937v308h303v-308h-303z
M685 1937v308h304v-308h-304zM610.5 1750z" />
    <glyph glyph-name="multiply" unicode="&#xd7;" horiz-adv-x="829" 
d="M65 468l194 194l-194 194l150 151l194 -195l195 195l149 -151l-194 -194c64 -65 129 -131 194 -194l-149 -150l-195 195l-194 -195z" />
    <glyph glyph-name="Oslash" unicode="&#xd8;" horiz-adv-x="1221" 
d="M258 -250l76 277c-184 102 -250 316 -250 565v605c0 357 125 638 526 638c81 0 152 -12 212 -34l73 266l97 -20l-80 -290c165 -108 225 -316 225 -560v-596c0 -347 -128 -636 -527 -636c-70 0 -131 9 -185 25l-71 -260zM773 501l-1 787c0 113 -24 266 -162 266
s-162 -153 -162 -266v-787c0 -116 22 -265 163 -265c140 0 162 149 162 265zM611 1800z" />
    <glyph glyph-name="Ugrave" unicode="&#xd9;" horiz-adv-x="1248" 
d="M99 669v1131h364v-1120c0 -303 0 -434 161 -434c162 0 161 131 161 434v1120h364v-1131c0 -371 -67 -704 -525 -704c-457 0 -525 333 -525 704zM521 1937l-277 442h346l136 -442h-205zM485 1849z" />
    <glyph glyph-name="Uacute" unicode="&#xda;" horiz-adv-x="1248" 
d="M99 669v1131h364v-1120c0 -303 0 -434 161 -434c162 0 161 131 161 434v1120h364v-1131c0 -371 -67 -704 -525 -704c-457 0 -525 333 -525 704zM522 1937l136 442h345l-277 -442h-204zM762.5 1849z" />
    <glyph glyph-name="Ucircumflex" unicode="&#xdb;" horiz-adv-x="1248" 
d="M99 669v1131h364v-1120c0 -303 0 -434 161 -434c162 0 161 131 161 434v1120h364v-1131c0 -371 -67 -704 -525 -704c-457 0 -525 333 -525 704zM275 1937l201 406h290l206 -406h-275l-75 202l-73 -202h-274zM623.5 1849z" />
    <glyph glyph-name="Udieresis" unicode="&#xdc;" horiz-adv-x="1248" 
d="M99 669v1131h364v-1120c0 -303 0 -434 161 -434c162 0 161 131 161 434v1120h364v-1131c0 -371 -67 -704 -525 -704c-457 0 -525 333 -525 704zM246 1937v308h303v-308h-303zM699 1937v308h304v-308h-304zM624.5 1750z" />
    <glyph glyph-name="Yacute" unicode="&#xdd;" horiz-adv-x="1035" 
d="M337 0v595l-338 1205h343l168 -791c61 260 124 531 185 791h333l-339 -1205v-595h-352zM415 1937l136 442h345l-277 -442h-204zM655.5 1849z" />
    <glyph glyph-name="Thorn" unicode="&#xde;" horiz-adv-x="1020" 
d="M97 0v1800h383v-236h52c324 0 449 -192 449 -510c0 -407 -191 -515 -506 -520v-534h-378zM481 791c159 0 155 87 155 270c0 142 -1 244 -155 244v-514z" />
    <glyph glyph-name="germandbls" unicode="&#xdf;" horiz-adv-x="1193" 
d="M99 0v1358c0 255 141 476 461 476c309 0 461 -182 461 -485c0 -155 -65 -300 -255 -372c252 -68 356 -280 356 -482c0 -358 -191 -530 -594 -530v250c202 0 238 102 238 320c0 166 -78 279 -237 280v253c125 1 160 162 160 281c0 108 -6 236 -108 236
c-113 0 -116 -121 -116 -222v-1363h-366z" />
    <glyph glyph-name="agrave" unicode="&#xe0;" horiz-adv-x="976" 
d="M620 0l-33 135c-42 -130 -140 -164 -259 -164c-200 0 -270 168 -270 320c0 322 223 431 493 542v110c0 87 -18 137 -75 137c-78 0 -81 -73 -81 -137v-74h-327c0 298 152 466 441 466c198 0 376 -166 376 -368v-620c0 -120 16 -230 43 -347h-308zM552 295v321
c-87 -70 -166 -164 -166 -294c0 -44 14 -97 68 -97c45 0 75 41 98 70zM391 1437l-277 442h346l136 -442h-205zM355 1349z" />
    <glyph glyph-name="aacute" unicode="&#xe1;" horiz-adv-x="976" 
d="M620 0l-33 135c-42 -130 -140 -164 -259 -164c-200 0 -270 168 -270 320c0 322 223 431 493 542v110c0 87 -18 137 -75 137c-78 0 -81 -73 -81 -137v-74h-327c0 298 152 466 441 466c198 0 376 -166 376 -368v-620c0 -120 16 -230 43 -347h-308zM552 295v321
c-87 -70 -166 -164 -166 -294c0 -44 14 -97 68 -97c45 0 75 41 98 70zM391 1437l136 442h345l-277 -442h-204zM631.5 1349z" />
    <glyph glyph-name="acircumflex" unicode="&#xe2;" horiz-adv-x="976" 
d="M620 0l-33 135c-42 -130 -140 -164 -259 -164c-200 0 -270 168 -270 320c0 322 223 431 493 542v110c0 87 -18 137 -75 137c-78 0 -81 -73 -81 -137v-74h-327c0 298 152 466 441 466c198 0 376 -166 376 -368v-620c0 -120 16 -230 43 -347h-308zM552 295v321
c-87 -70 -166 -164 -166 -294c0 -44 14 -97 68 -97c45 0 75 41 98 70zM145 1437l201 406h290l206 -406h-275l-75 202l-73 -202h-274zM493.5 1349z" />
    <glyph glyph-name="atilde" unicode="&#xe3;" horiz-adv-x="976" 
d="M620 0l-33 135c-42 -130 -140 -164 -259 -164c-200 0 -270 168 -270 320c0 322 223 431 493 542v110c0 87 -18 137 -75 137c-78 0 -81 -73 -81 -137v-74h-327c0 298 152 466 441 466c198 0 376 -166 376 -368v-620c0 -120 16 -230 43 -347h-308zM552 295v321
c-87 -70 -166 -164 -166 -294c0 -44 14 -97 68 -97c45 0 75 41 98 70zM322 1448h-167c0 152 24 299 185 299c130 0 239 -58 301 -58c35 0 35 22 35 46h155c0 -108 -12 -298 -156 -298c-99 0 -209 73 -304 73c-52 0 -49 -34 -49 -62zM493 1323z" />
    <glyph glyph-name="adieresis" unicode="&#xe4;" horiz-adv-x="976" 
d="M620 0l-33 135c-42 -130 -140 -164 -259 -164c-200 0 -270 168 -270 320c0 322 223 431 493 542v110c0 87 -18 137 -75 137c-78 0 -81 -73 -81 -137v-74h-327c0 298 152 466 441 466c198 0 376 -166 376 -368v-620c0 -120 16 -230 43 -347h-308zM552 295v321
c-87 -70 -166 -164 -166 -294c0 -44 14 -97 68 -97c45 0 75 41 98 70zM114 1437v308h303v-308h-303zM567 1437v308h304v-308h-304zM492.5 1250z" />
    <glyph glyph-name="aring" unicode="&#xe5;" horiz-adv-x="976" 
d="M620 0l-33 135c-42 -130 -140 -164 -259 -164c-200 0 -270 168 -270 320c0 322 223 431 493 542v110c0 87 -18 137 -75 137c-78 0 -81 -73 -81 -137v-74h-327c0 298 152 466 441 466c198 0 376 -166 376 -368v-620c0 -120 16 -230 43 -347h-308zM552 295v321
c-87 -70 -166 -164 -166 -294c0 -44 14 -97 68 -97c45 0 75 41 98 70zM493 1558c58 0 78 70 78 117c0 46 -20 119 -78 119c-59 0 -81 -69 -81 -117c0 -49 21 -119 81 -119zM240 1676c0 149 109 239 253 239c143 0 253 -91 253 -239c0 -149 -109 -239 -253 -239
s-253 90 -253 239zM493 1304z" />
    <glyph glyph-name="ae" unicode="&#xe6;" horiz-adv-x="1427" 
d="M400 869h-327c0 288 151 467 413 467c9 0 19 -1 28 -1c73 -3 157 -44 204 -102c59 60 160 102 260 102c229 0 390 -186 390 -337c0 -279 -340 -320 -474 -343v-309c0 -43 5 -110 64 -110c60 0 70 77 70 148c0 41 -3 80 -3 102h334v-147c0 -224 -158 -356 -371 -368
c-117 0 -253 70 -285 174c-62 -112 -201 -174 -312 -174c-171 0 -328 105 -328 320c0 321 211 387 493 455v135c0 77 -7 189 -87 189c-61 0 -72 -61 -72 -120c0 -30 3 -59 3 -81zM581 421c0 18 -6 165 -6 165c-188 -65 -209 -152 -209 -232c0 -58 28 -129 93 -129
c87 0 122 97 122 196zM894 964v-160s199 39 199 164c0 56 -33 110 -115 110c-53 0 -84 -72 -84 -114zM714 1305z" />
    <glyph glyph-name="ccedilla" unicode="&#xe7;" horiz-adv-x="928" 
d="M78 334v560c0 267 121 441 401 441c281 0 401 -173 401 -441v-114h-331v149c0 90 -7 151 -70 151c-53 0 -64 -57 -64 -99v-646c0 -44 6 -110 64 -110c66 0 70 59 70 165v139h331v-195c0 -224 -188 -363 -401 -363c-212 0 -401 140 -401 363zM338 -571v161
c30 0 221 -12 221 42c0 61 -122 100 -165 116v242h171v-129c89 -42 221 -119 221 -233c0 -198 -311 -199 -448 -199zM562 -10z" />
    <glyph glyph-name="egrave" unicode="&#xe8;" horiz-adv-x="940" 
d="M78 339v555c0 267 121 441 401 441c281 0 401 -173 401 -441v-270h-465v-289c0 -43 5 -110 64 -110c60 0 70 62 70 118v143h331v-147c0 -224 -188 -368 -401 -368c-212 0 -401 145 -401 368zM415 801h131v180c0 45 -12 99 -67 99c-53 0 -64 -57 -64 -99v-180zM377 1437
l-277 442h346l136 -442h-205zM341 1349z" />
    <glyph glyph-name="eacute" unicode="&#xe9;" horiz-adv-x="940" 
d="M78 339v555c0 267 121 441 401 441c281 0 401 -173 401 -441v-270h-465v-289c0 -43 5 -110 64 -110c60 0 70 62 70 118v143h331v-147c0 -224 -188 -368 -401 -368c-212 0 -401 145 -401 368zM415 801h131v180c0 45 -12 99 -67 99c-53 0 -64 -57 -64 -99v-180zM377 1437
l136 442h345l-277 -442h-204zM617.5 1349z" />
    <glyph glyph-name="ecircumflex" unicode="&#xea;" horiz-adv-x="940" 
d="M78 339v555c0 267 121 441 401 441c281 0 401 -173 401 -441v-270h-465v-289c0 -43 5 -110 64 -110c60 0 70 62 70 118v143h331v-147c0 -224 -188 -368 -401 -368c-212 0 -401 145 -401 368zM415 801h131v180c0 45 -12 99 -67 99c-53 0 -64 -57 -64 -99v-180zM131 1437
l201 406h290l206 -406h-275l-75 202l-73 -202h-274zM479.5 1349z" />
    <glyph glyph-name="edieresis" unicode="&#xeb;" horiz-adv-x="940" 
d="M78 339v555c0 267 121 441 401 441c281 0 401 -173 401 -441v-270h-465v-289c0 -43 5 -110 64 -110c60 0 70 62 70 118v143h331v-147c0 -224 -188 -368 -401 -368c-212 0 -401 145 -401 368zM415 801h131v180c0 45 -12 99 -67 99c-53 0 -64 -57 -64 -99v-180zM100 1437
v308h303v-308h-303zM553 1437v308h304v-308h-304zM478.5 1250z" />
    <glyph glyph-name="igrave" unicode="&#xec;" horiz-adv-x="532" 
d="M124 0v1305h337v-1305h-337zM190 1436l-277 442h346l136 -442h-205zM154 1348z" />
    <glyph glyph-name="iacute" unicode="&#xed;" horiz-adv-x="532" 
d="M124 0v1305h337v-1305h-337zM191 1436l136 442h345l-277 -442h-204zM431.5 1348z" />
    <glyph glyph-name="icircumflex" unicode="&#xee;" horiz-adv-x="532" 
d="M124 0v1305h337v-1305h-337zM-56 1436l201 406h290l206 -406h-275l-75 202l-73 -202h-274zM292.5 1348z" />
    <glyph glyph-name="idieresis" unicode="&#xef;" horiz-adv-x="532" 
d="M124 0v1305h337v-1305h-337zM-86 1436v308h303v-308h-303zM367 1436v308h304v-308h-304zM292.5 1249z" />
    <glyph glyph-name="eth" unicode="&#xf0;" horiz-adv-x="988" 
d="M87 341v551c0 199 147 314 293 314c62 0 123 -19 173 -58c0 85 -2 155 -12 212l-154 -78l-66 140l155 79c-49 48 -129 69 -260 69l48 265c250 0 407 -70 501 -187l143 73l66 -140l-134 -68c35 -95 49 -205 49 -325v-847c0 -224 -193 -370 -406 -370
c-212 0 -396 147 -396 370zM552 340v534c0 45 -32 68 -65 68s-65 -23 -65 -74v-528c0 -44 4 -104 61 -104c60 0 69 58 69 104z" />
    <glyph glyph-name="ntilde" unicode="&#xf1;" horiz-adv-x="1005" 
d="M94 0v1305h337v-92c62 70 156 121 256 121c145 0 231 -151 231 -282v-1052h-337v993c0 28 0 87 -56 87c-39 0 -75 -46 -94 -68v-1012h-337zM335 1447h-167c0 152 24 299 185 299c130 0 239 -58 301 -58c35 0 35 22 35 46h155c0 -108 -12 -298 -156 -298
c-99 0 -209 73 -304 73c-52 0 -49 -34 -49 -62zM506 1322z" />
    <glyph glyph-name="ograve" unicode="&#xf2;" horiz-adv-x="973" 
d="M78 339v555c0 267 118 440 406 440s411 -172 411 -440v-555c0 -224 -193 -368 -411 -368c-217 0 -406 145 -406 368zM561 335v646c0 45 -14 99 -77 99c-61 0 -69 -57 -69 -99v-646c0 -44 2 -110 69 -110c69 0 77 64 77 110zM384 1436l-277 442h346l136 -442h-205z
M348 1348z" />
    <glyph glyph-name="oacute" unicode="&#xf3;" horiz-adv-x="973" 
d="M78 339v555c0 267 118 440 406 440s411 -172 411 -440v-555c0 -224 -193 -368 -411 -368c-217 0 -406 145 -406 368zM561 335v646c0 45 -14 99 -77 99c-61 0 -69 -57 -69 -99v-646c0 -44 2 -110 69 -110c69 0 77 64 77 110zM385 1436l136 442h345l-277 -442h-204z
M625.5 1348z" />
    <glyph glyph-name="ocircumflex" unicode="&#xf4;" horiz-adv-x="973" 
d="M78 339v555c0 267 118 440 406 440s411 -172 411 -440v-555c0 -224 -193 -368 -411 -368c-217 0 -406 145 -406 368zM561 335v646c0 45 -14 99 -77 99c-61 0 -69 -57 -69 -99v-646c0 -44 2 -110 69 -110c69 0 77 64 77 110zM138 1436l201 406h290l206 -406h-275l-75 202
l-73 -202h-274zM486.5 1348z" />
    <glyph glyph-name="otilde" unicode="&#xf5;" horiz-adv-x="973" 
d="M78 339v555c0 267 118 440 406 440s411 -172 411 -440v-555c0 -224 -193 -368 -411 -368c-217 0 -406 145 -406 368zM561 335v646c0 45 -14 99 -77 99c-61 0 -69 -57 -69 -99v-646c0 -44 2 -110 69 -110c69 0 77 64 77 110zM302 1444h-167c0 152 24 299 185 299
c130 0 239 -58 301 -58c35 0 35 22 35 46h155c0 -108 -12 -298 -156 -298c-99 0 -209 73 -304 73c-52 0 -49 -34 -49 -62zM473 1319z" />
    <glyph glyph-name="odieresis" unicode="&#xf6;" horiz-adv-x="973" 
d="M78 339v555c0 267 118 440 406 440s411 -172 411 -440v-555c0 -224 -193 -368 -411 -368c-217 0 -406 145 -406 368zM561 335v646c0 45 -14 99 -77 99c-61 0 -69 -57 -69 -99v-646c0 -44 2 -110 69 -110c69 0 77 64 77 110zM108 1436v308h303v-308h-303zM561 1436v308
h304v-308h-304zM486.5 1249z" />
    <glyph glyph-name="divide" unicode="&#xf7;" horiz-adv-x="696" 
d="M6 583v223h676v-223h-676zM200 890v287h287v-287h-287zM200 236v287h287v-287h-287z" />
    <glyph glyph-name="oslash" unicode="&#xf8;" horiz-adv-x="983" 
d="M208 -233l73 254c-117 60 -198 172 -198 318v555c0 267 118 440 406 440c61 0 116 -8 163 -23l73 253l77 -20l-77 -266c121 -71 175 -207 175 -384v-555c0 -224 -193 -367 -411 -367c-47 0 -92 7 -135 20l-70 -245zM566 346v618c0 45 -14 99 -77 99
c-61 0 -69 -57 -69 -99v-618c0 -44 2 -110 69 -110c69 0 77 64 77 110zM492 1305z" />
    <glyph glyph-name="ugrave" unicode="&#xf9;" horiz-adv-x="1006" 
d="M87 253v1052h337v-970c0 -37 0 -110 46 -110c44 0 84 48 105 74v1006h337v-1305h-337v113c-63 -77 -158 -142 -257 -142c-146 0 -231 151 -231 282zM397 1436l-277 442h346l136 -442h-205zM361 1348z" />
    <glyph glyph-name="uacute" unicode="&#xfa;" horiz-adv-x="1006" 
d="M87 253v1052h337v-970c0 -37 0 -110 46 -110c44 0 84 48 105 74v1006h337v-1305h-337v113c-63 -77 -158 -142 -257 -142c-146 0 -231 151 -231 282zM397 1436l136 442h345l-277 -442h-204zM637.5 1348z" />
    <glyph glyph-name="ucircumflex" unicode="&#xfb;" horiz-adv-x="1006" 
d="M87 253v1052h337v-970c0 -37 0 -110 46 -110c44 0 84 48 105 74v1006h337v-1305h-337v113c-63 -77 -158 -142 -257 -142c-146 0 -231 151 -231 282zM151 1436l201 406h290l206 -406h-275l-75 202l-73 -202h-274zM499.5 1348z" />
    <glyph glyph-name="udieresis" unicode="&#xfc;" horiz-adv-x="1006" 
d="M87 253v1052h337v-970c0 -37 0 -110 46 -110c44 0 84 48 105 74v1006h337v-1305h-337v113c-63 -77 -158 -142 -257 -142c-146 0 -231 151 -231 282zM121 1436v308h303v-308h-303zM574 1436v308h304v-308h-304zM499.5 1249z" />
    <glyph glyph-name="yacute" unicode="&#xfd;" horiz-adv-x="872" 
d="M270 117c0 294 -218 1027 -252 1188h307l121 -728l106 728h309l-285 -1340c-50 -234 -232 -276 -446 -276h-43v233c135 3 183 61 183 195zM316 1393l136 442h345l-277 -442h-204zM556.5 1305z" />
    <glyph glyph-name="thorn" unicode="&#xfe;" horiz-adv-x="988" 
d="M567 310v687c0 39 -4 86 -46 86c-35 0 -68 -53 -85 -78v-708c16 -25 49 -81 85 -81c43 0 46 52 46 94zM99 -371v2171h337v-583c49 66 123 118 207 118c151 0 259 -139 259 -284v-801c0 -145 -108 -279 -259 -279c-83 0 -158 49 -207 127v-469h-337z" />
    <glyph glyph-name="ydieresis" unicode="&#xff;" horiz-adv-x="872" 
d="M270 117c0 294 -218 1027 -252 1188h307l121 -728l106 728h309l-285 -1340c-50 -234 -232 -276 -446 -276h-43v233c135 3 183 61 183 195zM52 1492v308h303v-308h-303zM505 1492v308h304v-308h-304zM430.5 1305z" />
    <glyph glyph-name="Jcircumflex" unicode="&#x134;" horiz-adv-x="691" 
d="M0 -34v256c174 -2 220 34 220 213v1365h364v-1368c0 -311 -66 -466 -405 -466h-179zM43 1937l201 406h290l206 -406h-275l-75 202l-73 -202h-274zM391.5 1849z" />
    <glyph glyph-name="OE" unicode="&#x152;" horiz-adv-x="1555" 
d="M84 609v571c0 340 125 618 526 619h914v-249h-387v-490h274v-256h-274v-554h387v-250h-914c-397 0 -526 256 -526 609zM610 253h163v1284h-163c-138 0 -162 -153 -162 -266v-753c0 -114 23 -265 162 -265zM778 1800z" />
    <glyph glyph-name="oe" unicode="&#x153;" horiz-adv-x="1436" 
d="M83 339v555c0 267 118 440 406 440c100 0 180 -29 242 -79c66 50 150 79 256 79c267 0 381 -172 381 -440v-270h-465v-278c0 -43 5 -110 64 -110c60 0 70 77 70 148c0 41 -3 80 -3 102h334v-147c0 -224 -183 -369 -391 -369c-90 0 -175 32 -246 87
c-75 -55 -166 -87 -262 -87c-207 0 -386 146 -386 369zM566 339v625c0 45 -14 99 -77 99c-61 0 -69 -57 -69 -99v-618c0 -44 2 -110 69 -110c65 0 76 58 77 103zM903 801h131v163c0 45 -12 99 -67 99c-53 0 -64 -57 -64 -99v-163zM718 1305z" />
    <glyph glyph-name="Sacute" unicode="&#x15a;" horiz-adv-x="1073" 
d="M45 515l369 71c0 -158 13 -344 139 -344c86 0 108 62 108 138c0 150 -108 284 -213 376l-113 96c-142 120 -289 252 -289 511c0 295 205 474 508 474c256 0 459 -209 459 -464c0 -6 -1 -14 -1 -43l-376 -52c0 23 3 45 3 73c0 85 -19 207 -115 207
c-86 0 -120 -82 -120 -158c0 -197 175 -293 287 -395c185 -165 324 -334 324 -612c0 -258 -212 -430 -463 -430c-345 0 -493 270 -507 552zM440 1939l136 442h345l-277 -442h-204zM680.5 1851z" />
    <glyph glyph-name="sacute" unicode="&#x15b;" horiz-adv-x="874" 
d="M38 315l258 92c22 -67 61 -189 145 -189c50 0 63 32 63 74c0 92 -95 171 -200 261l-55 47c-117 102 -229 221 -229 383c0 235 208 351 422 351c201 0 351 -180 402 -365l-242 -83c-28 72 -79 199 -170 199c-50 0 -74 -43 -74 -82c0 -66 94 -150 182 -224l62 -55
c115 -104 235 -234 235 -389c0 -215 -174 -364 -381 -364c-210 0 -362 145 -418 344zM315 1392l136 442h345l-277 -442h-204zM555.5 1304z" />
    <glyph glyph-name="Scaron" unicode="&#x160;" horiz-adv-x="1073" 
d="M45 515l369 71c0 -158 13 -344 139 -344c86 0 108 62 108 138c0 150 -108 284 -213 376l-113 96c-142 120 -289 252 -289 511c0 295 205 474 508 474c256 0 459 -209 459 -464c0 -6 -1 -14 -1 -43l-376 -52c0 23 3 45 3 73c0 85 -19 207 -115 207
c-86 0 -120 -82 -120 -158c0 -197 175 -293 287 -395c185 -165 324 -334 324 -612c0 -258 -212 -430 -463 -430c-345 0 -493 270 -507 552zM395 1939l-201 406h274l73 -201l75 201h275l-206 -406h-290zM542.5 1859z" />
    <glyph glyph-name="scaron" unicode="&#x161;" horiz-adv-x="874" 
d="M38 315l258 92c22 -67 61 -189 145 -189c50 0 63 32 63 74c0 92 -95 171 -200 261l-55 47c-117 102 -229 221 -229 383c0 235 208 351 422 351c201 0 351 -180 402 -365l-242 -83c-28 72 -79 199 -170 199c-50 0 -74 -43 -74 -82c0 -66 94 -150 182 -224l62 -55
c115 -104 235 -234 235 -389c0 -215 -174 -364 -381 -364c-210 0 -362 145 -418 344zM280 1370l-201 406h274l73 -201l75 201h275l-206 -406h-290zM427.5 1290z" />
    <glyph glyph-name="Ydieresis" unicode="&#x178;" horiz-adv-x="1035" 
d="M337 0v595l-338 1205h343l168 -791c61 260 124 531 185 791h333l-339 -1205v-595h-352zM139 1937v308h303v-308h-303zM592 1937v308h304v-308h-304zM517.5 1750z" />
    <glyph glyph-name="Zcaron" unicode="&#x17d;" horiz-adv-x="998" 
d="M80 0v228l475 1321h-420v250h776v-229l-477 -1320h477v-250h-831zM408 1937l-201 406h274l73 -201l75 201h275l-206 -406h-290zM555.5 1857z" />
    <glyph glyph-name="zcaron" unicode="&#x17e;" horiz-adv-x="813" 
d="M57 0v228l359 834h-303v243h651v-223l-362 -838h362v-244h-707zM309 1385l-201 406h274l73 -201l75 201h275l-206 -406h-290zM456.5 1305z" />
    <glyph glyph-name="uni01F5" unicode="&#x1f5;" horiz-adv-x="965" 
d="M338 339c0 -119 625 -38 625 -334c0 -286 -214 -346 -450 -346c-162 0 -481 13 -481 235c0 94 57 192 137 250c-36 18 -117 65 -117 104c0 54 92 174 133 226c-62 113 -102 247 -102 374c0 246 112 487 397 487c86 0 175 -22 232 -83c57 65 161 83 245 83h42l-28 -241
c-49 0 -107 -8 -143 -44c39 -70 42 -153 42 -227c0 -236 -142 -445 -401 -445c-41 0 -108 15 -108 15s-23 -45 -23 -54zM472 632c81 0 82 171 82 232c0 58 -1 238 -77 238c-79 0 -82 -138 -82 -251c0 -58 1 -219 77 -219zM368 79h-24c-21 -33 -45 -79 -45 -125
c0 -55 163 -59 222 -59c31 0 120 -5 120 68c0 102 -183 112 -273 116zM413 1437l136 442h345l-277 -442h-204zM653.5 1349z" />
    <glyph glyph-name="uni0219" unicode="&#x219;" horiz-adv-x="874" 
d="M38 315l258 92c22 -67 61 -189 145 -189c50 0 63 32 63 74c0 92 -95 171 -200 261l-55 47c-117 102 -229 221 -229 383c0 235 208 351 422 351c201 0 351 -180 402 -365l-242 -83c-28 72 -79 199 -170 199c-50 0 -74 -43 -74 -82c0 -66 94 -150 182 -224l62 -55
c115 -104 235 -234 235 -389c0 -215 -174 -364 -381 -364c-210 0 -362 145 -418 344zM352 -692l-40 166c72 0 80 -7 81 77h-110v318h323c0 -327 37 -565 -210 -565c-14 0 -30 2 -44 4z" />
    <glyph glyph-name="circumflex" unicode="&#x2c6;" horiz-adv-x="894" 
d="M107 1393l201 406h290l206 -406h-275l-75 202l-73 -202h-274zM455.5 1305z" />
    <glyph glyph-name="tilde" unicode="&#x2dc;" horiz-adv-x="900" 
d="M288 1430h-167c0 152 24 299 185 299c130 0 239 -58 301 -58c35 0 35 22 35 46h155c0 -108 -12 -298 -156 -298c-99 0 -209 73 -304 73c-52 0 -49 -34 -49 -62zM459 1305z" />
    <glyph glyph-name="endash" unicode="&#x2013;" horiz-adv-x="528" 
d="M4 453v223h517v-223h-517z" />
    <glyph glyph-name="emdash" unicode="&#x2014;" horiz-adv-x="827" 
d="M4 453v223h817v-223h-817z" />
    <glyph glyph-name="quoteleft" unicode="&#x2018;" horiz-adv-x="562" 
d="M425 1281h-297c0 197 -59 554 225 553l83 -169c-57 1 -137 -16 -139 -87h128v-297z" />
    <glyph glyph-name="quoteright" unicode="&#x2019;" horiz-adv-x="562" 
d="M199 1281l-84 169c59 -1 137 14 141 87h-128v297h296c0 -197 59 -554 -225 -553z" />
    <glyph glyph-name="quotesinglbase" unicode="&#x201a;" horiz-adv-x="429" 
d="M127 -321l-70 424h304l-71 -424h-163z" />
    <glyph glyph-name="quotedblleft" unicode="&#x201c;" horiz-adv-x="962" 
d="M428 1281h-297c0 198 -59 554 226 553l83 -169c-59 1 -136 -15 -140 -87h128v-297zM813 1281h-297c0 198 -59 554 226 553l82 -169c-59 1 -135 -16 -139 -87h128v-297z" />
    <glyph glyph-name="quotedblright" unicode="&#x201d;" horiz-adv-x="962" 
d="M203 1281l-84 169c57 -1 138 14 140 87h-128v297h297c0 -197 59 -554 -225 -553zM587 1281l-84 169c59 -1 137 14 141 87h-128v297h297c0 -198 59 -554 -226 -553z" />
    <glyph glyph-name="quotedblbase" unicode="&#x201e;" horiz-adv-x="762" 
d="M130 -320l-70 424h304l-71 -424h-163zM454 -320l-71 424h305l-72 -424h-162z" />
    <glyph glyph-name="daggerdbl" unicode="&#x2021;" horiz-adv-x="798" 
d="M271 0v448h-192v256h192v320h-192v256h192v256h256v-256h192v-256h-192v-320h192v-256h-192v-448h-256z" />
    <glyph glyph-name="bullet" unicode="&#x2022;" horiz-adv-x="990" 
d="M494 335c-187 0 -373 128 -373 383c0 258 187 387 373 387c188 0 375 -130 375 -387c0 -254 -188 -383 -375 -383z" />
    <glyph glyph-name="guilsinglleft" unicode="&#x2039;" horiz-adv-x="618" 
d="M527 64l-448 512v128l448 512v-320l-256 -255l256 -257v-320z" />
    <glyph glyph-name="guilsinglright" unicode="&#x203a;" horiz-adv-x="600" 
d="M79 64v320l256 257l-256 255v320l448 -512v-128z" />
    <glyph glyph-name="Euro" unicode="&#x20ac;" horiz-adv-x="1040" 
d="M7 514v196h69v127h-69v197h72v7c14 290 96 542 435 542c341 0 432 -252 436 -546v-6h-282v7c-1 96 -16 287 -149 287c-162 0 -157 -162 -158 -285v-6h199v-197h-199v-127h199v-196h-196v-5c6 -115 14 -273 162 -273c145 0 151 230 151 334v6h278v-8
c-1 -296 -74 -595 -434 -595c-342 0 -432 237 -444 533v8h-70z" />
    <glyph glyph-name="trademark" unicode="&#x2122;" horiz-adv-x="2234" 
d="M330 686v678h-163v154h497v-154h-164v-678h-170zM756 686v832h242l104 -453l107 453h242v-832h-160v555l-137 -555h-103l-137 555v-555h-158z" />
  </font>
</defs>
</svg>
