<?xml version="1.0" standalone="no"?>
<!DOCTYPE svg PUBLIC "-//W3C//DTD SVG 1.1//EN" "http://www.w3.org/Graphics/SVG/1.1/DTD/svg11.dtd" >
<svg>
<metadata>
Created by FontForge 20110222 at Sat Mar 31 10:42:54 2012
 By www-data
Copyright (c) 2011 by vernon adams. All rights reserved.
</metadata>
<defs>
<font id="Oswald-Light" horiz-adv-x="980" >
  <font-face 
    font-family="Oswald Light"
    font-weight="300"
    font-stretch="normal"
    units-per-em="2048"
    panose-1="2 0 5 6 0 0 0 2 0 4"
    ascent="1638"
    descent="-410"
    x-height="1198"
    cap-height="1721"
    bbox="-92 -408 1918 2245"
    underline-thickness="50"
    underline-position="-100"
    unicode-range="U+0020-2122"
  />
    <missing-glyph />
    <glyph glyph-name="space" unicode=" " horiz-adv-x="334" 
 />
    <glyph glyph-name="exclam" unicode="!" horiz-adv-x="434" 
d="M197 388l-80 1331h194l-60 -1331h-54zM138 0v179h185v-179h-185z" />
    <glyph glyph-name="quotedbl" unicode="&#x22;" horiz-adv-x="694" 
d="M152 1408l-50 307h168c-26 -154 -25 -155 -51 -307h-67zM475 1408l-50 307h168c-26 -154 -25 -155 -51 -307h-67z" />
    <glyph glyph-name="numbersign" unicode="#" horiz-adv-x="1020" 
d="M18 0l185 660h-155v125h190l67 239h-207v115h239l163 582h145l-163 -582h176l163 582h145l-163 -582h154v-115h-187l-67 -239h204v-125h-239l-185 -660h-144l185 660h-177l-185 -660h-144zM382 785h177l67 239h-177z" />
    <glyph glyph-name="dollar" unicode="$" horiz-adv-x="948" 
d="M197 484c19 -191 114 -353 303 -359c147 0 269 62 269 239c0 118 -99 230 -235 336l-295 230c-107 87 -182 191 -182 304c0 216 163 354 389 360v153h88v-156c193 -24 333 -162 361 -385l-126 -39c-25 157 -133 303 -287 303c-164 0 -278 -55 -278 -216
c0 -81 53 -161 141 -234l283 -225c144 -118 286 -248 286 -418c0 -234 -162 -361 -380 -373v-142h-88v144c-226 25 -349 218 -383 439z" />
    <glyph glyph-name="percent" unicode="%" horiz-adv-x="1257" 
d="M305 0l552 1721h124l-553 -1721h-123zM392 1190v228c0 127 -24 226 -109 226s-109 -99 -109 -226v-228c0 -133 24 -236 109 -236s109 103 109 236zM57 1187v234c0 182 54 324 226 324s226 -142 226 -324v-234c0 -180 -50 -334 -226 -334s-226 154 -226 334zM1118 310v228
c0 127 -24 226 -109 226s-109 -99 -109 -226v-228c0 -133 24 -236 109 -236s109 103 109 236zM783 307v234c0 182 54 324 226 324s226 -142 226 -324v-234c0 -180 -50 -334 -226 -334s-226 154 -226 334z" />
    <glyph glyph-name="ampersand" unicode="&#x26;" horiz-adv-x="1116" 
d="M1094 122v-136c-101 6 -216 62 -290 148c-102 -96 -227 -160 -370 -160c-256 0 -366 144 -366 324c0 176 100 402 278 546c-133 220 -206 392 -206 526c0 221 136 375 353 375c218 0 343 -134 343 -325c0 -173 -104 -394 -338 -603l321 -493c89 118 149 270 149 429h128
c0 -143 -75 -357 -206 -525c65 -72 138 -106 204 -106zM735 229l-329 505c-111 -103 -198 -279 -198 -421c0 -123 65 -219 234 -219c97 0 203 51 293 135zM442 927c151 145 250 335 250 489c0 120 -58 207 -195 207c-158 0 -205 -158 -205 -259c0 -119 40 -252 150 -437z
" />
    <glyph glyph-name="quotesingle" unicode="'" horiz-adv-x="373" 
d="M153 1408l-51 307h169c-27 -154 -25 -155 -51 -307h-67z" />
    <glyph glyph-name="parenleft" unicode="(" horiz-adv-x="535" 
d="M541 68v-132c-435 0 -426 594 -426 925s-9 926 426 926v-132c-264 0 -274 -392 -274 -752c0 -376 -10 -835 274 -835z" />
    <glyph glyph-name="parenright" unicode=")" horiz-adv-x="545" 
d="M18 -64v132c284 0 274 459 274 835c0 360 -10 752 -274 752v132c435 0 426 -595 426 -926s9 -925 -426 -925z" />
    <glyph glyph-name="asterisk" unicode="*" horiz-adv-x="760" 
d="M147 963l173 247l-265 101l36 89l252 -119l-18 302h119l-20 -301l254 120l35 -90l-264 -102l174 -250l-89 -49l-150 252l-149 -252z" />
    <glyph glyph-name="plus" unicode="+" horiz-adv-x="649" 
d="M274 384v192h-192v115h192v192h121v-192h192v-115h-192v-192h-121z" />
    <glyph glyph-name="comma" unicode="," horiz-adv-x="389" 
d="M160 -256l-27 55c92 33 106 154 106 201h-128v179h185c0 -229 5 -420 -136 -435z" />
    <glyph glyph-name="hyphen" unicode="-" horiz-adv-x="532" 
d="M117 448v115h313v-115h-313z" />
    <glyph glyph-name="period" unicode="." horiz-adv-x="397" 
d="M115 0v179h184v-179h-184z" />
    <glyph glyph-name="slash" unicode="/" horiz-adv-x="651" 
d="M-29 0l552 1721h145l-553 -1721h-144z" />
    <glyph glyph-name="zero" unicode="0" horiz-adv-x="1047" 
d="M783 465v789c0 204 -57 369 -257 369s-257 -165 -257 -369v-789c0 -204 57 -370 257 -370s257 166 257 370zM117 499v721c0 291 99 525 409 525s409 -234 409 -525v-721c0 -289 -91 -526 -409 -526s-409 237 -409 526z" />
    <glyph glyph-name="one" unicode="1" horiz-adv-x="532" 
d="M233 0v1478c-59 -40 -147 -79 -192 -89v144c61 22 179 85 241 188h103v-1721h-152z" />
    <glyph glyph-name="two" unicode="2" horiz-adv-x="931" 
d="M63 0v128l462 697c80 121 192 294 192 447c0 202 -61 351 -228 351c-236 0 -271 -197 -271 -407h-152v23c6 312 130 506 421 506c260 0 382 -187 382 -472c0 -155 -109 -357 -194 -480l-433 -671h606v-122h-785z" />
    <glyph glyph-name="three" unicode="3" horiz-adv-x="932" 
d="M74 395v26h142c6 -274 93 -326 252 -326c146 0 232 70 232 364c0 217 -59 373 -256 389v129c193 8 256 98 256 340c0 230 -81 306 -231 306c-152 0 -242 -90 -253 -331h-143v25c0 219 101 428 399 428c278 0 380 -207 380 -429c0 -233 -106 -368 -235 -406
c102 -41 235 -140 235 -448c0 -283 -103 -489 -398 -489c-282 0 -380 208 -380 422z" />
    <glyph glyph-name="four" unicode="4" horiz-adv-x="848" 
d="M505 0v509h-478v105l397 1109h233v-1101h171v-113h-171v-509h-152zM186 622h319l-1 974z" />
    <glyph glyph-name="five" unicode="5" horiz-adv-x="948" 
d="M123 430l152 11c0 -285 75 -346 226 -346c158 0 236 114 236 440c0 310 -69 419 -227 419c-79 0 -181 -41 -246 -140h-122v907h659l-14 -122h-493l-21 -633c61 65 163 110 267 110c259 0 349 -242 349 -540c0 -312 -108 -563 -388 -563c-272 0 -378 167 -378 457z" />
    <glyph glyph-name="six" unicode="6" horiz-adv-x="979" 
d="M114 490v766c0 283 100 489 388 489c275 0 370 -208 370 -422v-26h-142c-6 274 -89 326 -242 326c-140 0 -222 -70 -222 -364v-325c61 29 142 45 246 45c287 0 398 -217 398 -497c0 -288 -114 -509 -408 -509c-279 0 -388 191 -388 517zM266 811v-310
c0 -333 78 -406 236 -406c172 0 256 92 256 386c0 286 -81 376 -246 376c-88 0 -202 -17 -246 -46z" />
    <glyph glyph-name="seven" unicode="7" horiz-adv-x="691" 
d="M156 0l328 1585h-483v136h646v-76c-146 -753 -186 -892 -333 -1645h-158z" />
    <glyph glyph-name="eight" unicode="8" horiz-adv-x="954" 
d="M314 910c-129 38 -235 173 -235 406c0 240 111 429 398 429s398 -189 398 -429c0 -233 -106 -368 -235 -406c102 -41 235 -140 235 -448c0 -283 -103 -489 -398 -489s-398 206 -398 489c0 308 133 407 235 448zM477 847c-189 -21 -246 -175 -246 -388
c0 -294 86 -364 246 -364s246 70 246 364c0 213 -57 367 -246 388zM477 977c185 11 246 102 246 340c0 230 -81 306 -246 306s-246 -76 -246 -306c0 -238 61 -329 246 -340z" />
    <glyph glyph-name="nine" unicode="9" horiz-adv-x="990" 
d="M118 395v26h142c6 -274 89 -326 242 -326c140 0 222 70 222 364v325c-61 -29 -142 -45 -246 -45c-287 0 -398 217 -398 497c0 288 114 509 408 509c279 0 388 -191 388 -517v-766c0 -283 -100 -489 -388 -489c-275 0 -370 208 -370 422zM724 907v310
c0 333 -78 406 -236 406c-172 0 -256 -92 -256 -386c0 -286 81 -376 246 -376c88 0 202 17 246 46z" />
    <glyph glyph-name="colon" unicode=":" horiz-adv-x="426" 
d="M125 813v179h185v-179h-185zM125 275v179h185v-179h-185z" />
    <glyph glyph-name="semicolon" unicode=";" horiz-adv-x="422" 
d="M125 813v179h184v-179h-184zM173 0l-26 55c91 33 106 154 106 201h-128v179h184c-5 -241 5 -420 -136 -435z" />
    <glyph glyph-name="less" unicode="&#x3c;" horiz-adv-x="727" 
d="M76 494v215l569 398v-165l-477 -339c201 -145 275 -196 477 -342v-167s-426 298 -569 400z" />
    <glyph glyph-name="equal" unicode="=" horiz-adv-x="750" 
d="M127 576v115h505v-115h-505zM127 255v115h505v-115h-505z" />
    <glyph glyph-name="greater" unicode="&#x3e;" horiz-adv-x="727" 
d="M102 94v167l477 342c-202 142 -275 195 -477 339v167s424 -300 569 -400v-215z" />
    <glyph glyph-name="question" unicode="?" horiz-adv-x="868" 
d="M300 452v341c353 204 392 418 392 524c0 223 -124 307 -253 307c-152 0 -270 -105 -271 -303l-1 -142h-134v146c0 275 204 421 406 421c196 0 390 -137 390 -427c0 -247 -139 -424 -395 -583v-284h-134zM275 1v179h184v-179h-184z" />
    <glyph glyph-name="at" unicode="@" horiz-adv-x="1434" 
d="M1091 198l25 -118c-116 -25 -227 -40 -331 -40c-416 0 -713 207 -713 828c0 525 300 799 654 799c405 0 645 -277 645 -779c0 -324 -142 -442 -277 -442c-101 0 -199 65 -230 157c-25 -117 -120 -156 -213 -156c-194 0 -230 275 -230 392c0 305 108 441 232 441
c58 0 125 -27 181 -76v70h152v-560c0 -53 7 -153 104 -153c59 0 129 50 129 320c0 533 -202 665 -489 665c-127 0 -506 -38 -506 -682c0 -592 293 -705 556 -705c120 0 234 25 311 39zM834 644v477c-53 37 -97 53 -132 53c-98 0 -130 -154 -130 -334
c0 -198 39 -279 115 -279c77 0 112 38 147 83z" />
    <glyph glyph-name="A" unicode="A" horiz-adv-x="972" 
d="M200 0h-153l340 1721h198l340 -1721h-154l-86 448h-397zM306 549h360l-181 1014zM878 10z" />
    <glyph glyph-name="B" unicode="B" horiz-adv-x="1012" 
d="M146 0v1721h370c307 0 389 -221 389 -437c0 -131 -63 -295 -186 -351c171 -69 221 -274 221 -420c0 -273 -58 -513 -394 -513h-400zM298 116h272c179 0 218 185 218 397c0 187 -36 352 -218 352h-272v-749zM298 982h244c154 0 200 145 200 299c0 177 -55 324 -246 324
h-198v-623z" />
    <glyph glyph-name="C" unicode="C" horiz-adv-x="1032" 
d="M114 499v721c0 291 94 525 428 525c310 0 404 -234 404 -525v-70h-145v104c0 210 -59 369 -259 369c-224 0 -276 -159 -276 -369v-789c0 -210 52 -370 276 -370c200 0 259 160 259 370v118h145v-84c0 -289 -86 -526 -404 -526c-342 0 -428 237 -428 526zM532 0z" />
    <glyph glyph-name="D" unicode="D" horiz-adv-x="1086" 
d="M298 122h235c224 0 287 160 287 352v768c0 198 -63 357 -287 357h-235v-1477zM146 0v1721h387c334 0 439 -228 439 -513v-700c0 -278 -97 -508 -439 -508h-387zM546 861z" />
    <glyph glyph-name="E" unicode="E" horiz-adv-x="795" 
d="M146 0v1721h600v-122h-448v-652h320v-115h-320v-710h448v-122h-600zM726 10z" />
    <glyph glyph-name="F" unicode="F" horiz-adv-x="736" 
d="M146 0v1721h605v-122h-453v-652h356v-115h-356v-832h-152z" />
    <glyph glyph-name="G" unicode="G" horiz-adv-x="1088" 
d="M114 481v730c0 275 87 534 453 534c345 0 395 -268 397 -574v-12h-152v13c0 224 5 451 -247 451c-232 0 -299 -170 -299 -348v-860c0 -160 48 -320 287 -320c222 0 270 169 270 320v291h-211v115h363v-821h-67l-45 168c-46 -120 -174 -195 -312 -195
c-424 0 -437 348 -437 508zM554 0z" />
    <glyph glyph-name="H" unicode="H" horiz-adv-x="1126" 
d="M146 0v1721h152v-779h530v779h152v-1721h-152v836h-530v-836h-152zM563 861z" />
    <glyph glyph-name="I" unicode="I" horiz-adv-x="444" 
d="M145 0v1721h152v-1721h-152zM400 10z" />
    <glyph glyph-name="J" unicode="J" horiz-adv-x="566" 
d="M12 0v115c235 0 256 10 256 295v1311h152v-1311c0 -282 -30 -410 -329 -410h-79zM280 1721z" />
    <glyph glyph-name="K" unicode="K" horiz-adv-x="981" 
d="M146 0v1721h152v-905l459 905h157l-356 -710l437 -1011h-161l-368 909l-168 -302v-607h-152zM505 0z" />
    <glyph glyph-name="L" unicode="L" horiz-adv-x="772" 
d="M146 0v1721h152v-1599h481v-122h-633zM392 0z" />
    <glyph glyph-name="M" unicode="M" horiz-adv-x="1330" 
d="M146 0v1721h187l332 -1486c136 650 204 836 332 1486h187v-1721h-135v1377l-318 -1377h-132l-318 1376v-1376h-135z" />
    <glyph glyph-name="N" unicode="N" horiz-adv-x="1083" 
d="M146 0v1721h117l545 -1363v1363h129v-1721h-114l-546 1334v-1334h-131zM542 0z" />
    <glyph glyph-name="O" unicode="O" horiz-adv-x="1106" 
d="M840 465v789c0 204 -63 369 -287 369s-287 -165 -287 -369v-789c0 -204 63 -370 287 -370s287 166 287 370zM114 499v721c0 291 105 525 439 525s439 -234 439 -525v-721c0 -289 -97 -526 -439 -526s-439 237 -439 526zM553 1721z" />
    <glyph glyph-name="P" unicode="P" horiz-adv-x="1004" 
d="M146 0v1721h421c307 0 407 -215 407 -463c0 -245 -80 -493 -408 -493h-268v-765h-152zM298 887l286 -1c174 -1 238 120 238 369c0 239 -79 344 -238 344h-286v-712z" />
    <glyph glyph-name="Q" unicode="Q" horiz-adv-x="1113" 
d="M114 499v721c0 291 105 525 439 525s439 -234 439 -525v-721c0 -208 -50 -388 -205 -474c58 -53 124 -111 212 -123v-114c-119 17 -215 97 -308 201c-41 -10 -87 -16 -138 -16c-342 0 -439 237 -439 526zM840 465v789c0 204 -63 369 -287 369s-287 -165 -287 -369v-789
c0 -204 63 -370 287 -370s287 166 287 370z" />
    <glyph glyph-name="R" unicode="R" horiz-adv-x="1067" 
d="M146 0v1721h459c299 0 369 -206 369 -445c0 -176 -51 -348 -240 -417l266 -859h-162l-251 840h-289v-840h-152zM298 962h306c182 0 218 158 218 319c0 171 -40 318 -218 318h-306v-637zM535 0z" />
    <glyph glyph-name="S" unicode="S" horiz-adv-x="948" 
d="M68 415l134 39c21 -181 103 -359 307 -359c157 0 245 91 245 249c0 146 -106 271 -231 403l-269 283c-101 107 -182 215 -182 344c0 228 167 371 396 371c227 0 364 -132 409 -373l3 -16l-128 -40l-2 14c-25 161 -118 293 -282 293c-146 0 -249 -74 -249 -229
c0 -97 58 -184 141 -274l253 -275c135 -148 286 -290 286 -488c0 -254 -176 -384 -407 -384c-252 0 -388 205 -424 442zM481 0z" />
    <glyph glyph-name="T" unicode="T" horiz-adv-x="753" 
d="M299 0v1599h-335v122h825v-122h-338v-1599h-152zM377 861z" />
    <glyph glyph-name="U" unicode="U" horiz-adv-x="1132" 
d="M120 423v1298h152v-1333c0 -189 73 -293 293 -293c208 0 278 106 278 293v1333h151v-1298c0 -242 -90 -450 -429 -450c-353 0 -445 208 -445 450zM1012 10z" />
    <glyph glyph-name="V" unicode="V" horiz-adv-x="949" 
d="M382 0l-370 1721h164l305 -1541l292 1541h164l-356 -1721h-199z" />
    <glyph glyph-name="W" unicode="W" horiz-adv-x="1416" 
d="M311 0l-288 1721h142l235 -1472l222 1472h193l203 -1472l234 1472h141l-286 -1721h-175l-215 1520l-232 -1520h-174zM708 1721z" />
    <glyph glyph-name="X" unicode="X" horiz-adv-x="951" 
d="M30 0l367 866l-367 856h143l302 -724l293 724h156l-367 -872l367 -850h-146l-298 717l-293 -717h-157z" />
    <glyph glyph-name="Y" unicode="Y" horiz-adv-x="888" 
d="M374 0v534l-376 1187h154c71 -258 299 -1011 299 -1012c122 446 166 566 290 1012h149l-364 -1187v-534h-152zM444 1721z" />
    <glyph glyph-name="Z" unicode="Z" horiz-adv-x="866" 
d="M60 0v141l605 1458h-541v122h697v-141l-605 -1458h605v-122h-761zM441 1721z" />
    <glyph glyph-name="bracketleft" unicode="[" horiz-adv-x="494" 
d="M150 -64v1843h331v-81h-179v-1681h179v-81h-331z" />
    <glyph glyph-name="backslash" unicode="\" horiz-adv-x="639" 
d="M541 0l-553 1721h145l552 -1721h-144z" />
    <glyph glyph-name="bracketright" unicode="]" horiz-adv-x="504" 
d="M25 -64v81h179v1681h-179v81h331v-1843h-331z" />
    <glyph glyph-name="asciicircum" unicode="^" horiz-adv-x="739" 
d="M220 896h-177c68 170 227 563 227 563h207l226 -563h-175l-155 540z" />
    <glyph glyph-name="underscore" unicode="_" horiz-adv-x="913" 
d="M115 0v115h696v-115h-696z" />
    <glyph glyph-name="grave" unicode="`" horiz-adv-x="451" 
d="M299 1324l-229 398h162l123 -398h-56zM212.5 1198z" />
    <glyph glyph-name="a" unicode="a" horiz-adv-x="820" 
d="M581 0l-19 145c-68 -119 -175 -172 -253 -172c-116 0 -237 99 -237 266c0 155 7 300 479 494v10c-1 351 -74 381 -147 381c-59 0 -141 -23 -153 -228v-7h-156c16 209 129 336 304 336c254 0 304 -208 304 -373v-576c0 -141 18 -276 18 -276h-140zM551 244v422
c-207 -143 -328 -235 -328 -399c0 -125 65 -169 121 -169c76 0 163 60 207 146zM752 10z" />
    <glyph glyph-name="b" unicode="b" horiz-adv-x="871" 
d="M120 0v1721h150v-636c64 94 149 140 231 140c122 0 264 -47 264 -584v-95c0 -518 -142 -573 -253 -573c-75 0 -172 31 -242 140v-113h-150zM615 545v95c0 453 -71 474 -144 474c-71 0 -139 -50 -201 -119v-790c59 -71 135 -121 196 -121c76 0 149 12 149 461z" />
    <glyph glyph-name="c" unicode="c" horiz-adv-x="816" 
d="M106 568v62c0 279 0 595 327 595c239 0 291 -192 303 -408c0 -4 1 -7 1 -11h-150v9c-8 219 -43 309 -154 309c-157 0 -177 -140 -177 -494v-62c0 -360 29 -494 177 -494c107 0 144 90 154 319v10h151v-7c-10 -232 -58 -423 -305 -423c-327 0 -327 294 -327 595zM415 0z
" />
    <glyph glyph-name="d" unicode="d" horiz-adv-x="866" 
d="M596 0v113c-70 -109 -167 -140 -242 -140c-111 0 -253 55 -253 573v95c0 537 142 584 264 584c82 0 167 -46 231 -140v636h150v-1721h-150zM596 205v790c-62 69 -130 119 -201 119c-73 0 -144 -21 -144 -474v-95c0 -449 73 -461 149 -461c61 0 137 50 196 121zM446 599z
" />
    <glyph glyph-name="e" unicode="e" horiz-adv-x="829" 
d="M106.126 552v167c3 427 141 506 331 506c217 0 302 -151 302 -474c0 -49 0 -75 -2 -123h-480v-183c0 -323 67 -371 179 -371c77 0 157 64 159 293h140c-18 -206 -73 -394 -297 -394c-245 0 -336 127 -332 579zM258.126 702h332c-3 183 20 422 -146 422
c-185 0 -186 -148 -186 -422zM752.126 10z" />
    <glyph glyph-name="f" unicode="f" horiz-adv-x="532" 
d="M177 0v1114h-167v84h167v129c0 98 -16 325 217 325c41 0 85 -4 122 -13v-109c-12 3 -61 6 -74 6c-120 0 -115 -87 -115 -158v-180h192v-84h-192v-1114h-150z" />
    <glyph glyph-name="g" unicode="g" horiz-adv-x="881" 
d="M214 210c-8 -36 34 -40 255 -85c200 -41 355 -103 355 -255c0 -242 -287 -263 -408 -263c-92 0 -399 -1 -399 157c0 146 116 250 224 305c-11 2 -165 39 -165 81c0 80 114 228 143 268c-100 91 -140 241 -140 375c0 186 91 431 344 431c139 0 212 -77 283 -186
c38 66 96 162 182 183v-145c-53 -10 -112 -51 -151 -95c23 -64 38 -127 38 -181c0 -234 -97 -442 -348 -442c-55 0 -115 12 -144 24c-23 -44 -56 -111 -69 -172zM524 3l-214 46c-60 -44 -151 -164 -151 -240c0 -100 163 -95 259 -95c68 0 265 3 265 129
c0 96 -47 139 -159 160zM428 468c174 0 195 208 195 308c0 93 -20 327 -195 327c-176 0 -196 -234 -196 -327c0 -101 20 -308 196 -308zM448 1198z" />
    <glyph glyph-name="h" unicode="h" horiz-adv-x="860" 
d="M120 0v1721h150v-636c64 99 165 140 252 140c112 0 226 -91 226 -283v-942h-152v934c0 120 -44 180 -126 180c-65 0 -148 -51 -200 -122v-992h-150zM439 599z" />
    <glyph glyph-name="i" unicode="i" horiz-adv-x="405" 
d="M132 0v1198h150v-1198h-150zM132 1472v179h150v-179h-150z" />
    <glyph glyph-name="j" unicode="j" horiz-adv-x="428" 
d="M-44 -312v108c23 -1 46 -2 56 -2c136 0 136 126 136 188v1216h150v-1244c0 -196 -98 -274 -261 -274c-13 0 -50 2 -81 8zM148 1473v179h150v-179h-150z" />
    <glyph glyph-name="k" unicode="k" horiz-adv-x="830" 
d="M120 0v1721h150v-1091l374 568h169l-287 -454l285 -744h-157l-235 653l-149 -183v-470h-150zM435 0z" />
    <glyph glyph-name="l" unicode="l" horiz-adv-x="442" 
d="M146 0v1721h150v-1721h-150z" />
    <glyph glyph-name="m" unicode="m" horiz-adv-x="1335" 
d="M120 0v1198h151v-111c82 97 174 138 266 138c81 0 166 -56 200 -136c84 95 186 136 257 136c119 0 229 -93 229 -224v-1001h-150v970c0 105 -54 144 -123 144c-60 0 -130 -37 -190 -97v-1017h-150v971c0 105 -54 143 -127 143c-68 0 -148 -46 -213 -119v-995h-150z" />
    <glyph glyph-name="n" unicode="n" horiz-adv-x="860" 
d="M120 0v1198h150v-113c67 98 163 140 254 140c107 0 224 -92 224 -284v-941h-152v944c0 127 -58 170 -127 170c-62 0 -139 -46 -199 -121v-993h-150zM439 0z" />
    <glyph glyph-name="o" unicode="o" horiz-adv-x="846" 
d="M256 630v-62c0 -360 27 -494 167 -494s167 134 167 494v62c0 354 -21 494 -167 494c-148 0 -167 -140 -167 -494zM106 568v62c0 279 0 595 317 595s317 -316 317 -595v-62c0 -301 0 -595 -317 -595s-317 294 -317 595zM423 1198z" />
    <glyph glyph-name="p" unicode="p" horiz-adv-x="871" 
d="M120 -385v1583h150v-113c70 109 167 140 242 140c111 0 253 -55 253 -573v-95c0 -537 -142 -584 -264 -584c-82 0 -167 46 -231 140v-498h-150zM615 558v95c0 449 -73 461 -149 461c-61 0 -137 -50 -196 -121v-790c62 -69 130 -119 201 -119c73 0 144 21 144 474z" />
    <glyph glyph-name="q" unicode="q" horiz-adv-x="871" 
d="M601 -385v498c-64 -94 -149 -140 -231 -140c-122 0 -264 47 -264 584v95c0 518 142 573 253 573c75 0 172 -31 242 -140v113h150v-1583h-150zM601 203v790c-59 71 -135 121 -196 121c-76 0 -149 -12 -149 -461v-95c0 -453 71 -474 144 -474c71 0 139 50 201 119z" />
    <glyph glyph-name="r" unicode="r" horiz-adv-x="534" 
d="M120 0v1198h150v-169c40 135 162 186 252 188v-151s-11 4 -23 4c-115 0 -229 -35 -229 -176v-894h-150zM285 0z" />
    <glyph glyph-name="s" unicode="s" horiz-adv-x="749" 
d="M57 300l115 39c34 -104 114 -258 235 -258c109 0 158 74 158 178c0 96 -105 207 -205 295l-87 76c-107 94 -200 184 -200 309c0 184 122 284 301 284s269 -149 307 -304l-133 -41c-16 99 -70 237 -181 237c-91 0 -146 -69 -146 -163c0 -87 66 -158 150 -230l95 -82
c116 -101 237 -207 240 -378c0 -182 -128 -289 -305 -289c-187 0 -301 153 -344 327zM383 0z" />
    <glyph glyph-name="t" unicode="t" horiz-adv-x="550" 
d="M167 283v831h-163v84h163v425h150v-425h192v-84h-192v-824c0 -121 4 -196 102 -196c29 0 59 2 88 8v-103c-51 -13 -92 -17 -130 -17c-193 0 -210 148 -210 301zM285 599z" />
    <glyph glyph-name="u" unicode="u" horiz-adv-x="892" 
d="M112 257v941h152v-944c0 -127 58 -170 127 -170c62 0 139 46 199 121v993h150v-1198h-150v113c-67 -98 -163 -140 -254 -140c-107 0 -224 92 -224 284zM772 10z" />
    <glyph glyph-name="v" unicode="v" horiz-adv-x="747" 
d="M297 0l-272 1198h146l214 -1062l194 1062h143l-250 -1198h-175z" />
    <glyph glyph-name="w" unicode="w" horiz-adv-x="1161" 
d="M240 0l-198 1198h131l158 -1022l171 1022h160l184 -1022l144 1022h129l-196 -1198h-145l-193 988l-186 -988h-159zM587 1198z" />
    <glyph glyph-name="x" unicode="x" horiz-adv-x="783" 
d="M39 0l258 626l-256 572h155l196 -499l196 499h155l-257 -572l258 -626h-146l-206 534l-206 -534h-147z" />
    <glyph glyph-name="y" unicode="y" horiz-adv-x="777" 
d="M77 -299v123c163 11 231 54 231 130c0 34 -3 92 -11 142l-260 1102h152l208 -1001l204 1001h152l-300 -1281c-42 -162 -167 -210 -373 -216h-3zM382 1198z" />
    <glyph glyph-name="z" unicode="z" horiz-adv-x="695" 
d="M47 0v144l472 940h-408v114h549v-143l-461 -940h455v-115h-607zM345 1198z" />
    <glyph glyph-name="braceleft" unicode="{" horiz-adv-x="520" 
d="M511 56v-113c-343 0 -345 309 -345 666c0 88 -15 159 -131 159v188c116 0 131 71 131 159c0 357 2 666 345 666v-113c-209 0 -209 -174 -209 -494c0 -134 -20 -270 -163 -312c143 -42 163 -178 163 -312c0 -320 0 -494 209 -494z" />
    <glyph glyph-name="bar" unicode="|" horiz-adv-x="416" 
d="M150 -128v1874h118v-1874h-118z" />
    <glyph glyph-name="braceright" unicode="}" horiz-adv-x="530" 
d="M25 -57v113c209 0 209 174 209 494c0 134 20 270 163 312c-143 42 -163 178 -163 312c0 320 0 494 -209 494v113c343 0 345 -309 345 -666c0 -88 15 -159 131 -159v-188c-116 0 -131 -71 -131 -159c0 -357 -2 -666 -345 -666z" />
    <glyph glyph-name="asciitilde" unicode="~" horiz-adv-x="815" 
d="M213 959h-115c2 44 16 187 177 187c82 0 198 -76 275 -76c36 0 59 14 66 67h116c-3 -10 0 -190 -174 -190c-107 0 -203 78 -283 78c-36 0 -55 -13 -62 -66z" />
    <glyph glyph-name="nbspace" unicode="&#xa0;" horiz-adv-x="334" 
 />
    <glyph glyph-name="exclamdown" unicode="&#xa1;" horiz-adv-x="434" 
d="M245 1332l80 -1332h-194l60 1332h54zM304 1720v-179h-185v179h185z" />
    <glyph glyph-name="cent" unicode="&#xa2;" horiz-adv-x="760" 
d="M370 87v153c-294 18 -294 283 -294 554v62c0 249 0 534 293 554v133h65v-134c211 -16 260 -198 272 -403c0 -5 1 -9 1 -14h-150v14c-4 110 -8 303 -156 303c-164 0 -171 -136 -175 -453v-62c0 -318 22 -455 174 -455c144 0 150 189 156 313c0 6 1 12 1 17h151
c0 -4 -1 -8 -1 -12c-10 -220 -54 -401 -272 -417v-153h-65z" />
    <glyph glyph-name="sterling" unicode="&#xa3;" horiz-adv-x="836" 
d="M55 0v65l128 50v653h-128v109h128v327c0 156 14 541 325 541c284 0 276 -311 276 -402h-120c0 138 0 283 -162 274c-166 -9 -167 -201 -167 -453v-281h289v-115h-289v-653h448v-115h-728z" />
    <glyph glyph-name="currency" unicode="&#xa4;" horiz-adv-x="1028" 
d="M168 189l78 124c-93 80 -140 201 -140 322c0 118 45 238 135 318l-73 117l54 38l72 -116c60 37 134 59 222 59c95 0 174 -26 236 -69l79 126l54 -38l-82 -129c82 -80 123 -194 123 -306c0 -115 -43 -230 -127 -310l86 -136l-54 -38l-84 133c-61 -40 -138 -65 -231 -65
c-86 0 -158 21 -217 56l-77 -124zM516 311c203 4 305 164 305 324s-102 319 -305 324c-204 -5 -305 -164 -305 -324s101 -320 305 -324z" />
    <glyph glyph-name="yen" unicode="&#xa5;" horiz-adv-x="909" 
d="M386 0v226h-212v91h212v206h-212v89h187l-351 1109h169l282 -1032c122 446 158 586 282 1032h159l-340 -1109h181v-89h-205v-206h205v-91h-205v-226h-152z" />
    <glyph glyph-name="brokenbar" unicode="&#xa6;" horiz-adv-x="403" 
d="M137 -14v551h132v-551h-132zM137 889v552h132v-552h-132z" />
    <glyph glyph-name="section" unicode="&#xa7;" horiz-adv-x="834" 
d="M78 300l115 39c34 -104 114 -258 235 -258c109 0 158 74 158 178c0 96 -105 207 -205 295l-87 76c-107 94 -214 184 -214 309c0 134 65 223 169 262c-74 70 -133 144 -133 237c0 184 122 284 301 284s269 -149 307 -304l-133 -41c-16 99 -70 237 -181 237
c-91 0 -146 -69 -146 -163c0 -87 80 -158 164 -230l95 -82c116 -101 237 -218 240 -378c0 -118 -54 -205 -140 -251c59 -68 102 -146 104 -248c0 -182 -128 -289 -305 -289c-187 0 -301 153 -344 327zM392 722l146 -127c58 26 84 86 84 163c0 95 -105 208 -205 295l-69 60
c-76 -12 -120 -77 -120 -161c0 -88 80 -157 164 -230z" />
    <glyph glyph-name="dieresis" unicode="&#xa8;" horiz-adv-x="795" 
d="M113 1386v179h184v-179h-184zM497 1386v179h184v-179h-184zM397 1198z" />
    <glyph glyph-name="copyright" unicode="&#xa9;" horiz-adv-x="1378" 
d="M830 505h87c0 -2 0 -283 -215 -283c-237 0 -240 234 -240 445s3 445 240 445c224 0 215 -281 215 -283h-87c-3 111 -22 211 -129 211c-135 0 -146 -101 -146 -373s11 -373 146 -373c107 0 126 100 129 211zM696 -2c-418 0 -630 329 -630 659s212 659 630 659
s630 -329 630 -659s-212 -659 -630 -659zM696 67c359 0 540 294 540 590s-181 590 -540 590s-540 -294 -540 -590s181 -590 540 -590z" />
    <glyph glyph-name="ordfeminine" unicode="&#xaa;" horiz-adv-x="745" 
d="M518 0l-16 120c-57 -99 -146 -143 -211 -143c-96 0 -197 79 -197 212c0 123 6 238 399 391c0 265 -61 286 -122 286c-50 0 -119 -20 -128 -196h-130c13 174 108 280 253 280c212 0 254 -173 254 -311v-419c0 -113 15 -220 15 -220h-117zM493 193v331
c-172 -111 -273 -183 -273 -312c0 -97 54 -131 101 -131c63 0 135 46 172 112z" />
    <glyph glyph-name="guillemotleft" unicode="&#xab;" horiz-adv-x="874" 
d="M466 124l-388 452v128l388 452v-200l-276 -315l276 -317v-200zM778 124l-388 452v128l388 452v-200l-276 -315l276 -317v-200z" />
    <glyph glyph-name="logicalnot" unicode="&#xac;" horiz-adv-x="657" 
d="M100 448v115h440v-307h-56v192h-384z" />
    <glyph glyph-name="uni00AD" unicode="&#xad;" horiz-adv-x="659" 
d="M117 448v115h441v-115h-441z" />
    <glyph glyph-name="registered" unicode="&#xae;" horiz-adv-x="1378" 
d="M504 241v842h191c194 0 236 -122 236 -240c0 -100 -83 -173 -148 -186c0 0 14 -28 154 -413h-86l-133 402h-142v-405h-72zM576 695h67c110 0 208 -4 208 148c0 130 -53 189 -169 189h-106v-337zM696 -2c-418 0 -630 329 -630 659s212 659 630 659s630 -329 630 -659
s-212 -659 -630 -659zM696 67c359 0 540 294 540 590s-181 590 -540 590s-540 -294 -540 -590s181 -590 540 -590z" />
    <glyph glyph-name="macron" unicode="&#xaf;" horiz-adv-x="702" 
d="M131 1383v115h441v-115h-441zM351.5 1198z" />
    <glyph glyph-name="degree" unicode="&#xb0;" horiz-adv-x="637" 
d="M176 1504c0 -66 34 -147 141 -147s141 81 141 147s-34 147 -141 147s-141 -81 -141 -147zM317 1722c153 0 219 -112 219 -218s-66 -218 -219 -218s-219 112 -219 218s66 218 219 218z" />
    <glyph glyph-name="plusminus" unicode="&#xb1;" horiz-adv-x="702" 
d="M106 0v115h504v-115h-504zM298 384v192h-192v115h192v192h120v-192h192v-115h-192v-192h-120z" />
    <glyph glyph-name="uni00B2" unicode="&#xb2;" horiz-adv-x="764" 
d="M100 586v100l305 459c46 74 117 195 117 278c0 122 -34 212 -124 212c-135 0 -154 -128 -154 -264h-142c0 229 88 372 295 372c183 0 267 -127 267 -319c0 -98 -76 -234 -130 -318l-265 -409h381v-111h-550z" />
    <glyph glyph-name="uni00B3" unicode="&#xb3;" horiz-adv-x="770" 
d="M104 955h130c0 -136 20 -262 149 -262c104 0 142 79 142 221c0 77 -63 212 -161 232v84c110 31 161 119 161 195c0 123 -35 213 -132 213c-138 0 -159 -128 -159 -264h-130c0 228 87 370 288 370c180 0 263 -143 263 -308c0 -99 -67 -205 -158 -248
c90 -54 158 -185 158 -275c0 -191 -86 -326 -273 -326c-194 0 -278 142 -278 368z" />
    <glyph glyph-name="acute" unicode="&#xb4;" horiz-adv-x="444" 
d="M96 1324l123 398h162l-229 -398h-56zM238.5 1198z" />
    <glyph glyph-name="uni00B5" unicode="&#xb5;" horiz-adv-x="901" 
d="M145 -232v1430h152v-944c0 -127 58 -170 127 -170c62 0 139 46 199 121v993h150v-1198h-150v113c-58 -98 -145 -140 -224 -140c-38 0 -79 16 -115 50l-7 -255h-132z" />
    <glyph glyph-name="paragraph" unicode="&#xb6;" horiz-adv-x="969" 
d="M389 0v876c-223 0 -366 102 -366 289c0 180 119 294 371 294h437v-1459h-106v876h-211v-876h-125z" />
    <glyph glyph-name="periodcentered" unicode="&#xb7;" horiz-adv-x="446" 
d="M131 704v179h185v-179h-185z" />
    <glyph glyph-name="cedilla" unicode="&#xb8;" horiz-adv-x="449" 
d="M111 -394v59c107 0 147 28 147 67c0 42 -44 95 -103 134v134h64v-115c97 -57 142 -114 142 -162c0 -68 -91 -117 -250 -117zM236 0z" />
    <glyph glyph-name="uni00B9" unicode="&#xb9;" horiz-adv-x="522" 
d="M243 588v909c-59 -41 -147 -79 -192 -89v125c61 22 179 85 241 188h87v-1133h-136z" />
    <glyph glyph-name="ordmasculine" unicode="&#xba;" horiz-adv-x="715" 
d="M228 1283v-49c0 -281 21 -385 130 -385c110 0 131 104 131 385v49c0 276 -17 385 -131 385c-115 0 -130 -109 -130 -385zM111 1234v49c0 217 0 464 247 464c248 0 248 -247 248 -464v-49c0 -235 0 -464 -248 -464c-247 0 -247 229 -247 464z" />
    <glyph glyph-name="guillemotright" unicode="&#xbb;" horiz-adv-x="872" 
d="M111 124v200l276 317l-276 315v200l388 -452v-128zM423 124v200l276 317l-276 315v200l388 -452v-128z" />
    <glyph glyph-name="onequarter" unicode="&#xbc;" horiz-adv-x="1499" 
d="M883 276v95l301 761h210v-754h134v-102h-134v-277h-136v277h-375zM1028 378h230l-1 638zM348 0l552 1721h145l-553 -1721h-144zM192 588v909c-59 -41 -147 -79 -192 -89v125c61 22 179 85 241 188h87v-1133h-136z" />
    <glyph glyph-name="onehalf" unicode="&#xbd;" horiz-adv-x="1716" 
d="M192 588v909c-59 -41 -147 -79 -192 -89v125c61 22 179 85 241 188h87v-1133h-136zM468 0l552 1721h145l-553 -1721h-144zM1126 -1v100l305 459c46 74 117 195 117 278c0 122 -34 212 -124 212c-135 0 -154 -128 -154 -264h-142c0 229 88 372 295 372
c183 0 267 -127 267 -319c0 -98 -76 -234 -130 -318l-265 -409h381v-111h-550z" />
    <glyph glyph-name="threequarters" unicode="&#xbe;" horiz-adv-x="1890" 
d="M59 955h130c0 -136 20 -262 149 -262c104 0 142 79 142 221c0 77 -63 212 -161 232v84c110 31 161 119 161 195c0 123 -35 213 -132 213c-138 0 -159 -128 -159 -264h-130c0 228 87 370 288 370c180 0 263 -143 263 -308c0 -99 -67 -205 -158 -248
c90 -54 158 -185 158 -275c0 -191 -86 -326 -273 -326c-194 0 -278 142 -278 368zM645 0l552 1721h145l-553 -1721h-144zM1273 276v95l301 761h210v-754h134v-102h-134v-277h-136v277h-375zM1418 378h230l-1 638z" />
    <glyph glyph-name="questiondown" unicode="&#xbf;" horiz-adv-x="811" 
d="M541 1268v-341c-353 -204 -392 -418 -392 -524c0 -223 124 -307 253 -307c152 0 270 105 271 303l1 142h134v-146c0 -275 -204 -421 -406 -421c-196 0 -390 137 -390 427c0 247 139 424 395 583v284h134zM566 1719v-179h-184v179h184z" />
    <glyph glyph-name="Agrave" unicode="&#xc0;" 
d="M200 0h-153l340 1721h198l340 -1721h-154l-86 448h-397zM306 549h360l-181 1014zM462 1847l-229 398h162l123 -398h-56zM375.5 1721z" />
    <glyph glyph-name="Aacute" unicode="&#xc1;" 
d="M200 0h-153l340 1721h198l340 -1721h-154l-86 448h-397zM306 549h360l-181 1014zM462 1847l123 398h162l-229 -398h-56zM604.5 1721z" />
    <glyph glyph-name="Acircumflex" unicode="&#xc2;" 
d="M200 0h-153l340 1721h198l340 -1721h-154l-86 448h-397zM306 549h360l-181 1014zM229 1847l156 307h213l153 -307h-110l-150 299l-149 -299h-113zM490 1637z" />
    <glyph glyph-name="Atilde" unicode="&#xc3;" 
d="M200 0h-153l340 1721h198l340 -1721h-154l-86 448h-397zM306 549h360l-181 1014zM328 1859h-115c2 44 17 187 187 187c55 0 135 -76 185 -76c36 0 59 14 66 67h116c-3 -10 0 -190 -184 -190c-71 0 -140 78 -193 78c-36 0 -55 -13 -62 -66zM490 1681z" />
    <glyph glyph-name="Adieresis" unicode="&#xc4;" 
d="M200 0h-153l340 1721h198l340 -1721h-154l-86 448h-397zM306 549h360l-181 1014zM206 1847v179h184v-179h-184zM590 1847v179h184v-179h-184zM490 1659z" />
    <glyph glyph-name="Aring" unicode="&#xc5;" 
d="M200 0h-153l340 1721h198l340 -1721h-154l-86 448h-397zM306 549h360l-181 1014zM349 1948c0 -66 34 -147 141 -147s141 81 141 147s-34 147 -141 147s-141 -81 -141 -147zM490 2166c153 0 219 -112 219 -218s-66 -218 -219 -218s-219 112 -219 218s66 218 219 218z
M490 1642z" />
    <glyph glyph-name="AE" unicode="&#xc6;" horiz-adv-x="1380" 
d="M12 0l636 1721h672v-122h-448v-652h320v-115h-320v-710h448v-122h-600v448h-391l-165 -448h-152zM365 549h354v1014zM690 1721z" />
    <glyph glyph-name="Ccedilla" unicode="&#xc7;" horiz-adv-x="1074" 
d="M114 499v721c0 291 94 525 428 525c310 0 404 -234 404 -525v-70h-145v104c0 210 -59 369 -259 369c-224 0 -276 -159 -276 -369v-789c0 -210 52 -370 276 -370c200 0 259 160 259 370v118h145v-84c0 -289 -86 -526 -404 -526c-342 0 -428 237 -428 526zM463 -408v59
c107 0 147 28 147 67c0 42 -44 95 -103 134v134h64v-115c97 -57 142 -114 142 -162c0 -68 -91 -117 -250 -117zM588 -14z" />
    <glyph glyph-name="Egrave" unicode="&#xc8;" horiz-adv-x="807" 
d="M146 0v1721h600v-122h-448v-652h320v-115h-320v-710h448v-122h-600zM418 1847l-229 398h162l123 -398h-56zM331.5 1721z" />
    <glyph glyph-name="Eacute" unicode="&#xc9;" horiz-adv-x="807" 
d="M146 0v1721h600v-122h-448v-652h320v-115h-320v-710h448v-122h-600zM418 1847l123 398h162l-229 -398h-56zM560.5 1721z" />
    <glyph glyph-name="Ecircumflex" unicode="&#xca;" horiz-adv-x="807" 
d="M146 0v1721h600v-122h-448v-652h320v-115h-320v-710h448v-122h-600zM185 1847l156 307h213l153 -307h-110l-150 299l-149 -299h-113zM446 1637z" />
    <glyph glyph-name="Edieresis" unicode="&#xcb;" horiz-adv-x="807" 
d="M146 0v1721h600v-122h-448v-652h320v-115h-320v-710h448v-122h-600zM162 1847v179h184v-179h-184zM546 1847v179h184v-179h-184zM446 1659z" />
    <glyph glyph-name="Igrave" unicode="&#xcc;" horiz-adv-x="444" 
d="M145 0v1721h152v-1721h-152zM193 1847l-229 398h162l123 -398h-56zM106.5 1721z" />
    <glyph glyph-name="Iacute" unicode="&#xcd;" horiz-adv-x="444" 
d="M145 0v1721h152v-1721h-152zM193 1847l123 398h162l-229 -398h-56zM335.5 1721z" />
    <glyph glyph-name="Icircumflex" unicode="&#xce;" horiz-adv-x="444" 
d="M145 0v1721h152v-1721h-152zM-40 1847l156 307h213l153 -307h-110l-150 299l-149 -299h-113zM221 1637z" />
    <glyph glyph-name="Idieresis" unicode="&#xcf;" horiz-adv-x="444" 
d="M145 0v1721h152v-1721h-152zM-63 1847v179h184v-179h-184zM321 1847v179h184v-179h-184zM221 1659z" />
    <glyph glyph-name="Eth" unicode="&#xd0;" horiz-adv-x="1128" 
d="M183 0v830h-140v94h140v797h387c334 0 439 -228 439 -513v-700c0 -278 -97 -508 -439 -508h-387zM335 122h235c224 0 287 160 287 352v768c0 198 -63 357 -287 357h-235v-675h200v-94h-200v-708z" />
    <glyph glyph-name="Ntilde" unicode="&#xd1;" horiz-adv-x="1083" 
d="M146 0v1721h117l545 -1363v1363h129v-1721h-114l-546 1334v-1334h-131zM379 1859h-115c2 44 17 187 187 187c55 0 135 -76 185 -76c36 0 59 14 66 67h116c-3 -10 0 -190 -184 -190c-71 0 -140 78 -193 78c-36 0 -55 -13 -62 -66zM541 1681z" />
    <glyph glyph-name="Ograve" unicode="&#xd2;" horiz-adv-x="1116" 
d="M840 465v789c0 204 -63 369 -287 369s-287 -165 -287 -369v-789c0 -204 63 -370 287 -370s287 166 287 370zM114 499v721c0 291 105 525 439 525s439 -234 439 -525v-721c0 -289 -97 -526 -439 -526s-439 237 -439 526zM530 1847l-229 398h162l123 -398h-56zM443.5 1721z
" />
    <glyph glyph-name="Oacute" unicode="&#xd3;" horiz-adv-x="1116" 
d="M840 465v789c0 204 -63 369 -287 369s-287 -165 -287 -369v-789c0 -204 63 -370 287 -370s287 166 287 370zM114 499v721c0 291 105 525 439 525s439 -234 439 -525v-721c0 -289 -97 -526 -439 -526s-439 237 -439 526zM530 1847l123 398h162l-229 -398h-56zM672.5 1721z
" />
    <glyph glyph-name="Ocircumflex" unicode="&#xd4;" horiz-adv-x="1116" 
d="M840 465v789c0 204 -63 369 -287 369s-287 -165 -287 -369v-789c0 -204 63 -370 287 -370s287 166 287 370zM114 499v721c0 291 105 525 439 525s439 -234 439 -525v-721c0 -289 -97 -526 -439 -526s-439 237 -439 526zM297 1847l156 307h213l153 -307h-110l-150 299
l-149 -299h-113zM558 1637z" />
    <glyph glyph-name="Otilde" unicode="&#xd5;" horiz-adv-x="1116" 
d="M840 465v789c0 204 -63 369 -287 369s-287 -165 -287 -369v-789c0 -204 63 -370 287 -370s287 166 287 370zM114 499v721c0 291 105 525 439 525s439 -234 439 -525v-721c0 -289 -97 -526 -439 -526s-439 237 -439 526zM396 1859h-115c2 44 17 187 187 187
c55 0 135 -76 185 -76c36 0 59 14 66 67h116c-3 -10 0 -190 -184 -190c-71 0 -140 78 -193 78c-36 0 -55 -13 -62 -66zM558 1681z" />
    <glyph glyph-name="Odieresis" unicode="&#xd6;" horiz-adv-x="1116" 
d="M840 465v789c0 204 -63 369 -287 369s-287 -165 -287 -369v-789c0 -204 63 -370 287 -370s287 166 287 370zM114 499v721c0 291 105 525 439 525s439 -234 439 -525v-721c0 -289 -97 -526 -439 -526s-439 237 -439 526zM274 1847v179h184v-179h-184zM658 1847v179h184
v-179h-184zM558 1659z" />
    <glyph glyph-name="multiply" unicode="&#xd7;" horiz-adv-x="674" 
d="M51 410l192 192l-192 192l76 75l192 -192l192 192l76 -75l-192 -192s167 -168 192 -192l-76 -76l-192 192l-192 -192z" />
    <glyph glyph-name="Oslash" unicode="&#xd8;" horiz-adv-x="1106" 
d="M266 1254c0 204 63 369 287 369c84 0 146 -23 189 -63l-429 -1336c-34 65 -47 149 -47 241v789zM553 95c-84 0 -146 24 -190 64l430 1336c34 -65 47 -149 47 -241v-789c0 -204 -63 -370 -287 -370zM992 499v721c0 179 -40 337 -149 432l64 198l-65 20l-57 -178
c-61 34 -137 53 -232 53c-334 0 -439 -234 -439 -525v-721c0 -180 38 -339 148 -434l-63 -197l64 -20l57 177c61 -33 137 -52 233 -52c342 0 439 237 439 526zM558 1721z" />
    <glyph glyph-name="Ugrave" unicode="&#xd9;" horiz-adv-x="1138" 
d="M120 423v1298h152v-1333c0 -189 73 -293 293 -293c208 0 278 106 278 293v1333h151v-1298c0 -242 -90 -450 -429 -450c-353 0 -445 208 -445 450zM541 1847l-229 398h162l123 -398h-56zM454.5 1721z" />
    <glyph glyph-name="Uacute" unicode="&#xda;" horiz-adv-x="1138" 
d="M120 423v1298h152v-1333c0 -189 73 -293 293 -293c208 0 278 106 278 293v1333h151v-1298c0 -242 -90 -450 -429 -450c-353 0 -445 208 -445 450zM541 1847l123 398h162l-229 -398h-56zM683.5 1721z" />
    <glyph glyph-name="Ucircumflex" unicode="&#xdb;" horiz-adv-x="1138" 
d="M120 423v1298h152v-1333c0 -189 73 -293 293 -293c208 0 278 106 278 293v1333h151v-1298c0 -242 -90 -450 -429 -450c-353 0 -445 208 -445 450zM308 1847l156 307h213l153 -307h-110l-150 299l-149 -299h-113zM569 1637z" />
    <glyph glyph-name="Udieresis" unicode="&#xdc;" horiz-adv-x="1138" 
d="M120 423v1298h152v-1333c0 -189 73 -293 293 -293c208 0 278 106 278 293v1333h151v-1298c0 -242 -90 -450 -429 -450c-353 0 -445 208 -445 450zM285 1847v179h184v-179h-184zM669 1847v179h184v-179h-184zM569 1659z" />
    <glyph glyph-name="Yacute" unicode="&#xdd;" horiz-adv-x="888" 
d="M374 0v534l-376 1187h154c71 -258 299 -1011 299 -1012c122 446 166 566 290 1012h149l-364 -1187v-534h-152zM416 1847l123 398h162l-229 -398h-56zM558.5 1721z" />
    <glyph glyph-name="Thorn" unicode="&#xde;" horiz-adv-x="1058" 
d="M146 0v1721h152v-259h269c307 0 407 -215 407 -463c0 -245 -80 -493 -408 -493h-268v-506h-152zM298 628l286 -1c174 -1 238 119 238 369c0 239 -79 344 -238 344h-286v-712z" />
    <glyph glyph-name="germandbls" unicode="&#xdf;" horiz-adv-x="1053" 
d="M137 0v1338c0 272 185 408 369 408c181 0 360 -140 360 -418c0 -135 -72 -303 -216 -361c259 -58 311 -338 311 -514c0 -243 -113 -480 -577 -480v116c368 0 425 182 425 364c0 232 -58 436 -328 436h-105v117h107c170 0 220 155 220 319c0 208 -101 313 -204 313
c-104 0 -210 -101 -210 -303v-1335h-152z" />
    <glyph glyph-name="agrave" unicode="&#xe0;" horiz-adv-x="838" 
d="M581 0l-19 145c-68 -119 -175 -172 -253 -172c-116 0 -237 99 -237 266c0 155 7 300 479 494v10c-1 351 -74 381 -147 381c-59 0 -141 -23 -153 -228v-7h-156c16 209 129 336 304 336c254 0 304 -208 304 -373v-576c0 -141 18 -276 18 -276h-140zM551 244v422
c-207 -143 -328 -235 -328 -399c0 -125 65 -169 121 -169c76 0 163 60 207 146zM371 1327l-229 398h162l123 -398h-56zM284.5 1201z" />
    <glyph glyph-name="aacute" unicode="&#xe1;" horiz-adv-x="838" 
d="M581 0l-19 145c-68 -119 -175 -172 -253 -172c-116 0 -237 99 -237 266c0 155 7 300 479 494v10c-1 351 -74 381 -147 381c-59 0 -141 -23 -153 -228v-7h-156c16 209 129 336 304 336c254 0 304 -208 304 -373v-576c0 -141 18 -276 18 -276h-140zM551 244v422
c-207 -143 -328 -235 -328 -399c0 -125 65 -169 121 -169c76 0 163 60 207 146zM370 1327l123 398h162l-229 -398h-56zM512.5 1201z" />
    <glyph glyph-name="acircumflex" unicode="&#xe2;" horiz-adv-x="838" 
d="M581 0l-19 145c-68 -119 -175 -172 -253 -172c-116 0 -237 99 -237 266c0 155 7 300 479 494v10c-1 351 -74 381 -147 381c-59 0 -141 -23 -153 -228v-7h-156c16 209 129 336 304 336c254 0 304 -208 304 -373v-576c0 -141 18 -276 18 -276h-140zM551 244v422
c-207 -143 -328 -235 -328 -399c0 -125 65 -169 121 -169c76 0 163 60 207 146zM138 1327l156 307h213l153 -307h-110l-150 299l-149 -299h-113zM399 1117z" />
    <glyph glyph-name="atilde" unicode="&#xe3;" horiz-adv-x="838" 
d="M581 0l-19 145c-68 -119 -175 -172 -253 -172c-116 0 -237 99 -237 266c0 155 7 300 479 494v10c-1 351 -74 381 -147 381c-59 0 -141 -23 -153 -228v-7h-156c16 209 129 336 304 336c254 0 304 -208 304 -373v-576c0 -141 18 -276 18 -276h-140zM551 244v422
c-207 -143 -328 -235 -328 -399c0 -125 65 -169 121 -169c76 0 163 60 207 146zM237 1339h-115c2 44 17 187 187 187c55 0 135 -76 185 -76c36 0 59 14 66 67h116c-3 -10 0 -190 -184 -190c-71 0 -140 78 -193 78c-36 0 -55 -13 -62 -66zM399 1161z" />
    <glyph glyph-name="adieresis" unicode="&#xe4;" horiz-adv-x="838" 
d="M581 0l-19 145c-68 -119 -175 -172 -253 -172c-116 0 -237 99 -237 266c0 155 7 300 479 494v10c-1 351 -74 381 -147 381c-59 0 -141 -23 -153 -228v-7h-156c16 209 129 336 304 336c254 0 304 -208 304 -373v-576c0 -141 18 -276 18 -276h-140zM551 244v422
c-207 -143 -328 -235 -328 -399c0 -125 65 -169 121 -169c76 0 163 60 207 146zM115 1327v179h184v-179h-184zM499 1327v179h184v-179h-184zM399 1139z" />
    <glyph glyph-name="aring" unicode="&#xe5;" horiz-adv-x="838" 
d="M581 0l-19 145c-68 -119 -175 -172 -253 -172c-116 0 -237 99 -237 266c0 155 7 300 479 494v10c-1 351 -74 381 -147 381c-59 0 -141 -23 -153 -228v-7h-156c16 209 129 336 304 336c254 0 304 -208 304 -373v-576c0 -141 18 -276 18 -276h-140zM551 244v422
c-207 -143 -328 -235 -328 -399c0 -125 65 -169 121 -169c76 0 163 60 207 146zM258 1545c0 -66 34 -147 141 -147s141 81 141 147s-34 147 -141 147s-141 -81 -141 -147zM399 1763c153 0 219 -112 219 -218s-66 -218 -219 -218s-219 112 -219 218s66 218 219 218zM399 1239
z" />
    <glyph glyph-name="ae" unicode="&#xe6;" horiz-adv-x="1255" 
d="M253 889h-156c16 209 129 336 304 336c118 0 189 -55 232 -153c63 117 151 153 253 153c142 0 258 -101 258 -267c0 -282 -438 -338 -438 -338v-175c0 -297 68 -371 162 -371c79 0 145 46 150 272v21h140l-2 -22c-19 -203 -69 -372 -291 -372c-142 0 -237 87 -267 236
c-53 -190 -209 -236 -287 -236c-116 0 -237 99 -237 266c0 155 7 292 479 436v76c-2 344 -74 373 -147 373c-58 0 -137 -22 -152 -216c0 -6 -1 -13 -1 -19zM553 489v97c-257 -92 -328 -155 -328 -319c0 -117 51 -170 103 -170c165 0 225 286 225 392zM707 708v-4
c277 55 303 171 303 266c0 81 -40 154 -117 154c-185 0 -186 -176 -186 -416zM628 1198z" />
    <glyph glyph-name="ccedilla" unicode="&#xe7;" horiz-adv-x="834" 
d="M106 568v62c0 279 0 595 327 595c239 0 291 -192 303 -408c0 -4 1 -7 1 -11h-150v9c-8 219 -43 309 -154 309c-157 0 -177 -140 -177 -494v-62c0 -360 29 -494 177 -494c107 0 144 90 154 319v10h151v-7c-10 -232 -58 -423 -305 -423c-327 0 -327 294 -327 595zM348 -408
v59c107 0 147 28 147 67c0 42 -44 95 -103 134v134h64v-115c97 -57 142 -114 142 -162c0 -68 -91 -117 -250 -117zM473 -14z" />
    <glyph glyph-name="egrave" unicode="&#xe8;" horiz-adv-x="839" 
d="M106.126 552v167c3 427 141 506 331 506c217 0 302 -151 302 -474c0 -49 0 -75 -2 -123h-480v-183c0 -323 67 -371 179 -371c77 0 157 64 159 293h140c-18 -206 -73 -394 -297 -394c-245 0 -336 127 -332 579zM258.126 702h332c-3 183 20 422 -146 422
c-185 0 -186 -148 -186 -422zM397 1327l-229 398h162l123 -398h-56zM310.5 1201z" />
    <glyph glyph-name="eacute" unicode="&#xe9;" horiz-adv-x="839" 
d="M106.126 552v167c3 427 141 506 331 506c217 0 302 -151 302 -474c0 -49 0 -75 -2 -123h-480v-183c0 -323 67 -371 179 -371c77 0 157 64 159 293h140c-18 -206 -73 -394 -297 -394c-245 0 -336 127 -332 579zM258.126 702h332c-3 183 20 422 -146 422
c-185 0 -186 -148 -186 -422zM397 1327l123 398h162l-229 -398h-56zM539.5 1201z" />
    <glyph glyph-name="ecircumflex" unicode="&#xea;" horiz-adv-x="839" 
d="M106.126 552v167c3 427 141 506 331 506c217 0 302 -151 302 -474c0 -49 0 -75 -2 -123h-480v-183c0 -323 67 -371 179 -371c77 0 157 64 159 293h140c-18 -206 -73 -394 -297 -394c-245 0 -336 127 -332 579zM258.126 702h332c-3 183 20 422 -146 422
c-185 0 -186 -148 -186 -422zM164 1327l156 307h213l153 -307h-110l-150 299l-149 -299h-113zM425 1117z" />
    <glyph glyph-name="edieresis" unicode="&#xeb;" horiz-adv-x="839" 
d="M106.126 552v167c3 427 141 506 331 506c217 0 302 -151 302 -474c0 -49 0 -75 -2 -123h-480v-183c0 -323 67 -371 179 -371c77 0 157 64 159 293h140c-18 -206 -73 -394 -297 -394c-245 0 -336 127 -332 579zM258.126 702h332c-3 183 20 422 -146 422
c-185 0 -186 -148 -186 -422zM141 1327v179h184v-179h-184zM525 1327v179h184v-179h-184zM425 1139z" />
    <glyph glyph-name="igrave" unicode="&#xec;" horiz-adv-x="405" 
d="M132 0v1198h150v-1198h-150zM179 1327l-229 398h162l123 -398h-56zM92.5 1201z" />
    <glyph glyph-name="iacute" unicode="&#xed;" horiz-adv-x="405" 
d="M132 0v1198h150v-1198h-150zM179 1327l123 398h162l-229 -398h-56zM321.5 1201z" />
    <glyph glyph-name="icircumflex" unicode="&#xee;" horiz-adv-x="405" 
d="M132 0v1198h150v-1198h-150zM-54 1327l156 307h213l153 -307h-110l-150 299l-149 -299h-113zM207 1117z" />
    <glyph glyph-name="idieresis" unicode="&#xef;" horiz-adv-x="405" 
d="M132 0v1198h150v-1198h-150zM-77 1327v179h184v-179h-184zM307 1327v179h184v-179h-184zM207 1139z" />
    <glyph glyph-name="eth" unicode="&#xf0;" horiz-adv-x="877" 
d="M84 532v5c1 319 88 562 318 562c76 0 139 -16 183 -45c-18 128 -41 227 -68 304l-165 -37v95l128 29c-71 131 -171 166 -314 178l-14 122c216 -15 366 -89 462 -270l179 41v-95l-140 -32c71 -186 104 -460 105 -854v-25c0 -338 -95 -537 -346 -537
c-238 0 -328 241 -328 559zM234 545v-14c0 -334 62 -436 178 -436c123 0 197 52 197 456c0 102 -5 227 -15 380c-32 29 -126 46 -192 46c-107 0 -166 -101 -168 -432z" />
    <glyph glyph-name="ntilde" unicode="&#xf1;" horiz-adv-x="878" 
d="M120 0v1198h150v-113c67 98 163 140 254 140c107 0 224 -92 224 -284v-941h-152v944c0 127 -58 170 -127 170c-62 0 -139 -46 -199 -121v-993h-150zM272 1339h-115c2 44 17 187 187 187c55 0 135 -76 185 -76c36 0 59 14 66 67h116c-3 -10 0 -190 -184 -190
c-71 0 -140 78 -193 78c-36 0 -55 -13 -62 -66zM434 1161z" />
    <glyph glyph-name="ograve" unicode="&#xf2;" horiz-adv-x="850" 
d="M256 630v-62c0 -360 27 -494 167 -494s167 134 167 494v62c0 354 -21 494 -167 494c-148 0 -167 -140 -167 -494zM106 568v62c0 279 0 595 317 595s317 -316 317 -595v-62c0 -301 0 -595 -317 -595s-317 294 -317 595zM397 1327l-229 398h162l123 -398h-56zM310.5 1201z
" />
    <glyph glyph-name="oacute" unicode="&#xf3;" horiz-adv-x="850" 
d="M256 630v-62c0 -360 27 -494 167 -494s167 134 167 494v62c0 354 -21 494 -167 494c-148 0 -167 -140 -167 -494zM106 568v62c0 279 0 595 317 595s317 -316 317 -595v-62c0 -301 0 -595 -317 -595s-317 294 -317 595zM397 1327l123 398h162l-229 -398h-56zM539.5 1201z
" />
    <glyph glyph-name="ocircumflex" unicode="&#xf4;" horiz-adv-x="850" 
d="M256 630v-62c0 -360 27 -494 167 -494s167 134 167 494v62c0 354 -21 494 -167 494c-148 0 -167 -140 -167 -494zM106 568v62c0 279 0 595 317 595s317 -316 317 -595v-62c0 -301 0 -595 -317 -595s-317 294 -317 595zM164 1327l156 307h213l153 -307h-110l-150 299
l-149 -299h-113zM425 1117z" />
    <glyph glyph-name="otilde" unicode="&#xf5;" horiz-adv-x="850" 
d="M256 630v-62c0 -360 27 -494 167 -494s167 134 167 494v62c0 354 -21 494 -167 494c-148 0 -167 -140 -167 -494zM106 568v62c0 279 0 595 317 595s317 -316 317 -595v-62c0 -301 0 -595 -317 -595s-317 294 -317 595zM263 1339h-115c2 44 17 187 187 187
c55 0 135 -76 185 -76c36 0 59 14 66 67h116c-3 -10 0 -190 -184 -190c-71 0 -140 78 -193 78c-36 0 -55 -13 -62 -66zM425 1161z" />
    <glyph glyph-name="odieresis" unicode="&#xf6;" horiz-adv-x="850" 
d="M256 630v-62c0 -360 27 -494 167 -494s167 134 167 494v62c0 354 -21 494 -167 494c-148 0 -167 -140 -167 -494zM106 568v62c0 279 0 595 317 595s317 -316 317 -595v-62c0 -301 0 -595 -317 -595s-317 294 -317 595zM141 1327v179h184v-179h-184zM525 1327v179h184
v-179h-184zM425 1139z" />
    <glyph glyph-name="divide" unicode="&#xf7;" horiz-adv-x="674" 
d="M35 576v115h568v-115h-568zM227 879v179h184v-179h-184zM227 233v179h184v-179h-184z" />
    <glyph glyph-name="oslash" unicode="&#xf8;" horiz-adv-x="850" 
d="M256 630c0 354 19 494 167 494c64 0 105 -27 129 -88l-268 -838c-22 79 -28 199 -28 370v62zM423 74c-49 0 -84 16 -109 53l262 814c11 -76 14 -179 14 -311v-62c0 -360 -27 -494 -167 -494zM740 568v62c0 190 0 397 -100 510l104 325l-49 16l-97 -303
c-44 30 -101 47 -175 47c-317 0 -317 -316 -317 -595v-62c0 -220 0 -436 124 -537l-87 -271l48 -16l83 259c40 -19 89 -30 149 -30c317 0 317 294 317 595zM426 1198z" />
    <glyph glyph-name="ugrave" unicode="&#xf9;" horiz-adv-x="878" 
d="M112 257v941h152v-944c0 -127 58 -170 127 -170c62 0 139 46 199 121v993h150v-1198h-150v113c-67 -98 -163 -140 -254 -140c-107 0 -224 92 -224 284zM416 1327l-229 398h162l123 -398h-56zM329.5 1201z" />
    <glyph glyph-name="uacute" unicode="&#xfa;" horiz-adv-x="878" 
d="M112 257v941h152v-944c0 -127 58 -170 127 -170c62 0 139 46 199 121v993h150v-1198h-150v113c-67 -98 -163 -140 -254 -140c-107 0 -224 92 -224 284zM416 1327l123 398h162l-229 -398h-56zM558.5 1201z" />
    <glyph glyph-name="ucircumflex" unicode="&#xfb;" horiz-adv-x="878" 
d="M112 257v941h152v-944c0 -127 58 -170 127 -170c62 0 139 46 199 121v993h150v-1198h-150v113c-67 -98 -163 -140 -254 -140c-107 0 -224 92 -224 284zM183 1327l156 307h213l153 -307h-110l-150 299l-149 -299h-113zM444 1117z" />
    <glyph glyph-name="udieresis" unicode="&#xfc;" horiz-adv-x="878" 
d="M112 257v941h152v-944c0 -127 58 -170 127 -170c62 0 139 46 199 121v993h150v-1198h-150v113c-67 -98 -163 -140 -254 -140c-107 0 -224 92 -224 284zM160 1327v179h184v-179h-184zM544 1327v179h184v-179h-184zM444 1139z" />
    <glyph glyph-name="yacute" unicode="&#xfd;" horiz-adv-x="809" 
d="M77 -299v123c163 11 231 54 231 130c0 34 -3 92 -11 142l-260 1102h152l208 -1001l204 1001h152l-300 -1281c-42 -162 -167 -210 -373 -216h-3zM390 1327l123 398h162l-229 -398h-56zM532.5 1201z" />
    <glyph glyph-name="thorn" unicode="&#xfe;" horiz-adv-x="874" 
d="M120 -385v2106h150v-636c64 94 149 140 231 140c122 0 264 -47 264 -584v-95c0 -518 -142 -573 -253 -573c-75 0 -172 31 -242 140v-498h-150zM615 545v95c0 453 -71 474 -144 474c-71 0 -139 -50 -201 -119v-790c59 -71 135 -121 196 -121c76 0 149 12 149 461z" />
    <glyph glyph-name="ydieresis" unicode="&#xff;" horiz-adv-x="809" 
d="M77 -299v123c163 11 231 54 231 130c0 34 -3 92 -11 142l-260 1102h152l208 -1001l204 1001h152l-300 -1281c-42 -162 -167 -210 -373 -216h-3zM134 1327v179h184v-179h-184zM518 1327v179h184v-179h-184zM418 1139z" />
    <glyph glyph-name="jcircumflex" unicode="&#x135;" horiz-adv-x="410" 
d="M-72 -312v108c23 -1 46 -2 56 -2c136 0 136 126 136 188v1216h150v-1244c0 -196 -98 -274 -261 -274c-13 0 -50 2 -81 8zM-92 1327l156 307h213l153 -307h-110l-150 299l-149 -299h-113zM169 1117z" />
    <glyph glyph-name="OE" unicode="&#x152;" horiz-adv-x="1499" 
d="M115 499v721c0 279 105 501 439 501h887v-122h-448v-652h320v-115h-320v-710h448v-122h-887c-342 0 -439 226 -439 499zM554 121h287v1478h-287c-224 0 -287 -153 -287 -345v-789c0 -187 63 -342 287 -344zM750 1721z" />
    <glyph glyph-name="oe" unicode="&#x153;" horiz-adv-x="1332" 
d="M108 568v62c0 279 0 595 317 595c122 0 197 -47 243 -121c59 96 149 121 255 121c217 0 302 -151 302 -474c0 -49 0 -75 -2 -123h-480v-183c0 -323 67 -371 179 -371c77 0 156 68 159 293h139c-18 -205 -73 -394 -296 -394c-120 0 -203 30 -256 114
c-46 -70 -121 -114 -243 -114c-317 0 -317 294 -317 595zM258 630v-62c0 -360 27 -494 167 -494s167 134 167 494v62c0 354 -21 494 -167 494c-148 0 -167 -140 -167 -494zM744 702h332c-2 181 16 422 -146 422c-182 0 -186 -157 -186 -422zM666 1198z" />
    <glyph glyph-name="sacute" unicode="&#x15b;" horiz-adv-x="760" 
d="M57 300l115 39c34 -104 114 -258 235 -258c109 0 158 74 158 178c0 96 -105 207 -205 295l-87 76c-107 94 -200 184 -200 309c0 184 122 284 301 284s269 -149 307 -304l-133 -41c-16 99 -70 237 -181 237c-91 0 -146 -69 -146 -163c0 -87 66 -158 150 -230l95 -82
c116 -101 237 -207 240 -378c0 -182 -128 -289 -305 -289c-187 0 -301 153 -344 327zM350 1327l123 398h162l-229 -398h-56zM492.5 1201z" />
    <glyph glyph-name="Scedilla" unicode="&#x15e;" horiz-adv-x="987" 
d="M68 415l134 39c21 -181 103 -359 307 -359c157 0 245 91 245 249c0 146 -106 271 -231 403l-269 283c-101 107 -182 215 -182 344c0 228 167 371 396 371c227 0 364 -132 409 -373l3 -16l-128 -40l-2 14c-25 161 -118 293 -282 293c-146 0 -249 -74 -249 -229
c0 -97 58 -184 141 -274l253 -275c135 -148 286 -290 286 -488c0 -254 -176 -384 -407 -384c-252 0 -388 205 -424 442zM421 -408v59c107 0 147 28 147 67c0 42 -44 95 -103 134v134h64v-115c97 -57 142 -114 142 -162c0 -68 -91 -117 -250 -117zM546 -14z" />
    <glyph glyph-name="Scaron" unicode="&#x160;" horiz-adv-x="987" 
d="M68 415l134 39c21 -181 103 -359 307 -359c157 0 245 91 245 249c0 146 -106 271 -231 403l-269 283c-101 107 -182 215 -182 344c0 228 167 371 396 371c227 0 364 -132 409 -373l3 -16l-128 -40l-2 14c-25 161 -118 293 -282 293c-146 0 -249 -74 -249 -229
c0 -97 58 -184 141 -274l253 -275c135 -148 286 -290 286 -488c0 -254 -176 -384 -407 -384c-252 0 -388 205 -424 442zM469 1847l-209 347h142l95 -237l95 237h142l-209 -347h-56zM497 1721z" />
    <glyph glyph-name="scaron" unicode="&#x161;" horiz-adv-x="760" 
d="M57 300l115 39c34 -104 114 -258 235 -258c109 0 158 74 158 178c0 96 -105 207 -205 295l-87 76c-107 94 -200 184 -200 309c0 184 122 284 301 284s269 -149 307 -304l-133 -41c-16 99 -70 237 -181 237c-91 0 -146 -69 -146 -163c0 -87 66 -158 150 -230l95 -82
c116 -101 237 -207 240 -378c0 -182 -128 -289 -305 -289c-187 0 -301 153 -344 327zM351 1327l-209 347h142l95 -237l95 237h142l-209 -347h-56zM379 1201z" />
    <glyph glyph-name="Ydieresis" unicode="&#x178;" horiz-adv-x="888" 
d="M374 0v534l-376 1187h154c71 -258 299 -1011 299 -1012c122 446 166 566 290 1012h149l-364 -1187v-534h-152zM160 1847v179h184v-179h-184zM544 1847v179h184v-179h-184zM444 1659z" />
    <glyph glyph-name="Zcaron" unicode="&#x17d;" horiz-adv-x="897" 
d="M60 0v141l605 1458h-541v122h697v-141l-605 -1458h605v-122h-761zM471 1847l-209 347h142l95 -237l95 237h142l-209 -347h-56zM499 1721z" />
    <glyph glyph-name="zcaron" unicode="&#x17e;" horiz-adv-x="731" 
d="M47 0v144l472 940h-408v114h549v-143l-461 -940h455v-115h-607zM397 1327l-209 347h142l95 -237l95 237h142l-209 -347h-56zM425 1201z" />
    <glyph glyph-name="florin" unicode="&#x192;" horiz-adv-x="571" 
d="M-14 -381v109c12 -3 61 -6 74 -6c120 0 115 87 115 158v1234h-167v84h167v169c0 109 12 285 217 285c41 0 85 -4 122 -13v-109c-12 3 -61 6 -74 6c-120 0 -115 -87 -115 -158v-180h192v-84h-192v-1224c0 -109 -12 -284 -217 -284c-41 0 -85 4 -122 13z" />
    <glyph glyph-name="uni0206" unicode="&#x206;" horiz-adv-x="807" 
d="M146 0v1721h600v-122h-448v-652h320v-115h-320v-710h448v-122h-600zM281 1847h-111c9 217 166 268 276 268s267 -51 276 -268h-111c-20 138 -92 159 -165 159s-145 -21 -165 -159z" />
    <glyph glyph-name="circumflex" unicode="&#x2c6;" horiz-adv-x="713" 
d="M94 1408l156 307h213l153 -307h-110l-150 299l-149 -299h-113zM355 1198z" />
    <glyph glyph-name="ring" unicode="&#x2da;" horiz-adv-x="637" 
d="M176 1504c0 -66 34 -147 141 -147s141 81 141 147s-34 147 -141 147s-141 -81 -141 -147zM317 1722c153 0 219 -112 219 -218s-66 -218 -219 -218s-219 112 -219 218s66 218 219 218zM317 1198z" />
    <glyph glyph-name="tilde" unicode="&#x2dc;" horiz-adv-x="754" 
d="M217 1376h-115c2 44 17 187 187 187c55 0 135 -76 185 -76c36 0 59 14 66 67h116c-3 -10 0 -190 -184 -190c-71 0 -140 78 -193 78c-36 0 -55 -13 -62 -66zM379 1198z" />
    <glyph glyph-name="endash" unicode="&#x2013;" horiz-adv-x="793" 
d="M117 448v115h574v-115h-574z" />
    <glyph glyph-name="emdash" unicode="&#x2014;" horiz-adv-x="1194" 
d="M117 448v115h974v-115h-974z" />
    <glyph glyph-name="quoteleft" unicode="&#x2018;" horiz-adv-x="403" 
d="M296 1311h-185c0 303 15 420 136 435l27 -55c-101 -33 -106 -163 -106 -201h128v-179z" />
    <glyph glyph-name="quoteright" unicode="&#x2019;" horiz-adv-x="393" 
d="M149 1286l-27 55c101 33 106 163 106 201h-128v179h185c0 -303 -15 -420 -136 -435z" />
    <glyph glyph-name="quotesinglbase" unicode="&#x201a;" horiz-adv-x="403" 
d="M173 -321l-50 307h168c-26 -154 -24 -155 -50 -307h-68z" />
    <glyph glyph-name="quotedblleft" unicode="&#x201c;" horiz-adv-x="698" 
d="M296 1311h-185c0 303 15 420 136 435l27 -55c-101 -33 -106 -163 -106 -201h128v-179zM590 1311h-185c0 303 15 420 136 435l27 -55c-101 -33 -106 -163 -106 -201h128v-179z" />
    <glyph glyph-name="quotedblright" unicode="&#x201d;" horiz-adv-x="686" 
d="M149 1286l-27 55c101 33 106 163 106 201h-128v179h185c0 -303 -15 -420 -136 -435zM443 1286l-27 55c101 33 106 163 106 201h-128v179h185c0 -303 -15 -420 -136 -435z" />
    <glyph glyph-name="quotedblbase" unicode="&#x201e;" horiz-adv-x="725" 
d="M174 -320l-51 307h168c-26 -154 -24 -155 -50 -307h-67zM497 -320l-51 307h168c-26 -154 -24 -155 -50 -307h-67z" />
    <glyph glyph-name="daggerdbl" unicode="&#x2021;" horiz-adv-x="590" 
d="M244 0v448h-226v89h226v577h-226v83h226v262h118v-262h224v-83h-224v-577h224v-89h-224v-448h-118z" />
    <glyph glyph-name="bullet" unicode="&#x2022;" horiz-adv-x="565" 
d="M104 767c0 107 72 182 182 182c113 0 183 -66 183 -182c0 -113 -70 -179 -183 -179c-110 0 -182 66 -182 179z" />
    <glyph glyph-name="guilsinglleft" unicode="&#x2039;" horiz-adv-x="561" 
d="M466 124l-388 452v128l388 452v-200l-276 -315l276 -317v-200z" />
    <glyph glyph-name="guilsinglright" unicode="&#x203a;" horiz-adv-x="561" 
d="M78 124v200l276 317l-276 315v200l388 -452v-128z" />
    <glyph glyph-name="Euro" unicode="&#x20ac;" horiz-adv-x="1096" 
d="M163 499v196h-122v89h122v132h-122v89h122v215c0 291 103 525 437 525c310 0 404 -234 404 -525v-70h-145v104c0 210 -59 369 -259 369c-224 0 -285 -159 -285 -369v-249h268v-89h-268v-132h268v-89h-268v-230c0 -210 61 -370 285 -370c200 0 259 160 259 370v118h145
v-84c0 -289 -86 -526 -404 -526c-342 0 -437 237 -437 526z" />
    <glyph glyph-name="trademark" unicode="&#x2122;" horiz-adv-x="1399" 
d="M220 686v678h-163v77h426v-77h-164v-678h-99zM646 686v755h163l148 -539l163 539h150v-755h-89v724l-201 -724h-47l-200 714v-714h-87z" />
  </font>
</defs>
</svg>
