<?xml version="1.0" standalone="no"?>
<!DOCTYPE svg PUBLIC "-//W3C//DTD SVG 1.1//EN" "http://www.w3.org/Graphics/SVG/1.1/DTD/svg11.dtd" >
<svg>
<metadata>
Created by FontForge 20110222 at Sat Mar 31 10:43:29 2012
 By www-data
Copyright (c) 2011 by vernon adams. All rights reserved.
</metadata>
<defs>
<font id="Oswald" horiz-adv-x="640" >
  <font-face 
    font-family="Oswald"
    font-weight="400"
    font-stretch="normal"
    units-per-em="2048"
    panose-1="2 0 5 6 0 0 0 2 0 4"
    ascent="1638"
    descent="-410"
    x-height="1280"
    cap-height="1792"
    bbox="-126 -512.934 2757 2368.93"
    underline-thickness="102"
    underline-position="-103"
    unicode-range="U+0020-2122"
  />
    <missing-glyph />
    <glyph glyph-name="space" unicode=" " horiz-adv-x="350" 
 />
    <glyph glyph-name="space" unicode="&#xa0;" horiz-adv-x="350" 
 />
    <glyph glyph-name="exclam" unicode="!" horiz-adv-x="375" 
d="M64 1792h256l-46 -1408h-146zM64 256h256v-256h-256v256z" />
    <glyph glyph-name="quotedbl" unicode="&#x22;" horiz-adv-x="704" 
d="M62 1792h256l-64 -464h-128zM385 1792h256l-64 -464h-128z" />
    <glyph glyph-name="numbersign" unicode="#" horiz-adv-x="1088" 
d="M1024 1024h-111l-28 -192h139v-192h-166l-90 -640h-256l90 640h-192l-90 -640h-256l90 640h-90v192h117l28 192h-145v192h172l82 576h256l-82 -576h192l82 576h256l-82 -576h84v-192zM437 832h193l27 192h-192z" />
    <glyph glyph-name="dollar" unicode="$" horiz-adv-x="1216" 
d="M127 1378c0 266 180 432 449 432v110h128v-121l41 -9c209 -57 325 -204 343 -446l-256 -64c-6 119 -39 212 -108 269l-20 15v-566l128 -102c133 -104 256 -268 256 -495c0 -248 -156 -391 -384 -416v-113h-128v113c-288 21 -431 237 -448 527l256 64
c6 -170 51 -312 171 -368l21 -8v555l-256 205c-110 88 -193 227 -193 418zM384 1405c0 -111 57 -197 128 -253l64 -51v499c-124 0 -192 -75 -192 -195zM832 384c0 112 -46 182 -108 244l-20 20v-450c85 19 128 81 128 186z" />
    <glyph glyph-name="percent" unicode="%" horiz-adv-x="1999" 
d="M444 541c-260 0 -366 222 -366 491c0 275 100 484 366 484c265 0 367 -211 367 -484c0 -271 -107 -491 -367 -491zM578 1032c0 122 -14 289 -134 289s-133 -169 -133 -289c0 -118 18 -297 133 -297c117 0 134 179 134 297zM1554 0c-260 0 -366 223 -366 492
c0 274 101 483 366 483s367 -210 367 -483c0 -272 -105 -492 -367 -492zM1688 492c0 121 -14 288 -134 288s-133 -169 -133 -288c0 -117 18 -297 133 -297c117 0 134 179 134 297zM1034 1518h219l-282 -1518h-220z" />
    <glyph glyph-name="ampersand" unicode="&#x26;" horiz-adv-x="1344" 
d="M1216 -18c-152 0 -240 98 -320 175c-79 -101 -208 -175 -384 -175c-241 0 -384 163 -384 402c0 235 126 397 256 512c-71 145 -192 312 -192 512c0 237 147 402 384 402c213 0 384 -126 384 -338c0 -243 -192 -448 -320 -576l256 -384c38 85 49 194 64 320h256
c0 -177 -84 -368 -159 -482c32 -40 90 -94 159 -94v-274zM545 1024c79 99 159 283 159 448c0 77 -50 128 -128 128c-93 0 -128 -98 -128 -192c0 -140 54 -278 97 -384zM384 384c0 -99 30 -192 128 -192c107 0 176 68 224 128l-123 183c-40 62 -110 134 -132 201
c-56 -74 -97 -193 -97 -320z" />
    <glyph glyph-name="quotesingle" unicode="'" horiz-adv-x="384" 
d="M62 1792h256l-64 -464h-128z" />
    <glyph glyph-name="parenleft" unicode="(" 
d="M576 -64c-439 0 -448 512 -448 960c0 449 9 960 448 960v-192c-172 0 -195 -274 -195 -521c0 -91 3 -178 3 -247c0 -70 -3 -159 -3 -251c0 -246 23 -517 195 -517v-192z" />
    <glyph glyph-name="parenright" unicode=")" 
d="M64 1856c439 0 448 -512 448 -960c0 -449 -9 -960 -448 -960v192c172 0 195 274 195 521c0 91 -3 178 -3 247c0 70 3 159 3 251c0 246 -23 517 -195 517v192z" />
    <glyph glyph-name="asterisk" unicode="*" horiz-adv-x="896" 
d="M343 904l-152 90l172 243l-257 98l61 161l245 -132l-28 300h192l-29 -300l246 132l61 -161l-257 -99l172 -242l-152 -90l-137 277z" />
    <glyph glyph-name="plus" unicode="+" horiz-adv-x="704" 
d="M256 384v192h-192v192h192v192h192v-192h192v-192h-192v-192h-192z" />
    <glyph glyph-name="comma" unicode="," horiz-adv-x="408" 
d="M76 256h256c0 -96 -1 -177 -3 -242c-5 -162 -27 -270 -189 -270l-64 128c93 0 128 39 128 128h-128v256z" />
    <glyph glyph-name="hyphen" unicode="-" horiz-adv-x="384" 
d="M0 640h384v-192h-384v192z" />
    <glyph glyph-name="period" unicode="." horiz-adv-x="384" 
d="M64 256h256v-256h-256v256z" />
    <glyph glyph-name="slash" unicode="/" horiz-adv-x="832" 
d="M575 1792h257l-576 -1792h-256z" />
    <glyph glyph-name="zero" unicode="0" horiz-adv-x="1088" 
d="M992 512c0 -310 -146 -530 -448 -530c-300 0 -448 222 -448 530v768c0 317 139 530 448 530c307 0 448 -214 448 -530v-768zM352 512c0 -155 37 -320 192 -320c157 0 192 165 192 320v768c0 163 -28 320 -192 320s-192 -157 -192 -320v-768z" />
    <glyph glyph-name="one" unicode="1" 
d="M64 1600c106 38 206 95 256 192h192v-1792h-256v1408h-192v192z" />
    <glyph glyph-name="two" unicode="2" horiz-adv-x="1020" 
d="M712 1344c0 132 -60 256 -192 256c-153 0 -192 -164 -192 -320v-64h-256v64c0 321 127 530 448 530c295 0 448 -175 448 -466c0 -232 -93 -371 -192 -512l-448 -576h640v-256h-897v256l449 640c95 135 192 248 192 448z" />
    <glyph glyph-name="three" unicode="3" horiz-adv-x="1027" 
d="M78 1344c0 290 155 466 448 466c295 0 448 -175 448 -466c0 -208 -101 -336 -256 -384c168 -56 256 -215 256 -448c0 -321 -127 -530 -448 -530c-295 0 -448 175 -448 466v64h256c0 -178 20 -320 192 -320s192 142 192 320c0 192 -64 320 -256 320v256
c187 0 256 68 256 256c0 156 -39 256 -192 256c-172 0 -192 -142 -192 -320h-256v64z" />
    <glyph glyph-name="four" unicode="4" horiz-adv-x="1087" 
d="M595 460h-512v285l448 1048h320v-1091h198v-242h-198v-460h-256v460zM595 702v770l-256 -770h256z" />
    <glyph glyph-name="five" unicode="5" horiz-adv-x="1050" 
d="M521 186c223 0 211 244 211 472c0 177 -13 316 -191 316c-98 0 -164 -78 -191 -148h-218v966h792v-256h-560l-16 -434c66 39 147 64 256 64c296 0 384 -229 384 -526c0 -362 -89 -658 -453 -658c-333 0 -443 201 -443 530h256v-40c0 -151 21 -286 173 -286z" />
    <glyph glyph-name="six" unicode="6" horiz-adv-x="1083" 
d="M112 1152c0 351 101 658 448 658c290 0 448 -174 448 -466h-256c0 157 -38 256 -192 256c-128 0 -192 -128 -192 -384v-256c45 78 129 128 256 128c297 0 384 -218 384 -512c0 -325 -124 -594 -448 -594c-314 0 -448 272 -448 594v576zM368 512c0 -157 40 -320 192 -320
c153 0 192 164 192 320c0 192 0 384 -192 384c-98 0 -158 -64 -192 -128v-256z" />
    <glyph glyph-name="seven" unicode="7" horiz-adv-x="826" 
d="M45 1792h717v-123l-326 -1669h-246l328 1579h-473v213z" />
    <glyph glyph-name="eight" unicode="8" horiz-adv-x="1024" 
d="M673 1344c0 130 -30 256 -160 256c-132 0 -162 -124 -162 -256c0 -140 21 -281 162 -281c140 0 160 141 160 281zM64 511c0 225 59 349 194 435c-113 85 -168 204 -168 398c0 288 135 466 423 466c287 0 421 -179 421 -466c0 -194 -54 -313 -167 -398
c132 -87 193 -211 193 -435c0 -326 -121 -529 -447 -529c-327 0 -449 203 -449 529zM320 511c0 -171 20 -319 193 -319c172 0 191 150 191 319c0 156 -33 307 -191 307c-159 0 -193 -150 -193 -307z" />
    <glyph glyph-name="nine" unicode="9" horiz-adv-x="1083" 
d="M988 640c0 -351 -101 -658 -448 -658c-290 0 -448 174 -448 466h256c0 -157 38 -256 192 -256c128 0 192 128 192 384v256c-46 -77 -129 -128 -256 -128c-297 0 -384 218 -384 512c0 325 124 594 448 594c314 0 448 -272 448 -594v-576zM732 1280c0 157 -40 320 -192 320
c-153 0 -192 -164 -192 -320c0 -192 0 -384 192 -384c99 0 157 64 192 128v256z" />
    <glyph glyph-name="colon" unicode=":" horiz-adv-x="439" 
d="M128 1088h256v-256h-256v256zM128 512h256v-256h-256v256z" />
    <glyph glyph-name="semicolon" unicode=";" horiz-adv-x="384" 
d="M64 1088h256v-256h-256v256zM64 512h256c0 -96 -1 -177 -3 -242c-5 -162 -27 -270 -189 -270l-64 128c93 0 128 39 128 128h-128v256z" />
    <glyph glyph-name="less" unicode="&#x3c;" horiz-adv-x="832" 
d="M64 768l640 448v-256l-448 -319l448 -321v-256l-640 448v256z" />
    <glyph glyph-name="equal" unicode="=" horiz-adv-x="704" 
d="M64 576v192h576v-192h-576zM64 255v192h576v-192h-576z" />
    <glyph glyph-name="greater" unicode="&#x3e;" horiz-adv-x="832" 
d="M768 512l-640 -448v256l448 321l-448 319v256l640 -448v-256z" />
    <glyph glyph-name="question" unicode="?" horiz-adv-x="1152" 
d="M384 704c179 107 384 252 384 512c0 128 -64 192 -192 192c-153 0 -192 -100 -192 -256h-256v64c0 293 159 448 448 448c293 0 449 -159 449 -448c0 -300 -162 -469 -385 -576v-256h-256v320zM384 256h256v-256h-256v256z" />
    <glyph glyph-name="at" unicode="@" horiz-adv-x="1782" 
d="M884 502c43 0 70 10 74 40v403c-4 28 -18 51 -54 51c-138 0 -136 -163 -136 -303c0 -98 24 -191 116 -191zM1654 768c0 -265 -113 -476 -368 -476c-130 0 -228 49 -275 128c-28 -63 -80 -128 -171 -128c-219 0 -328 185 -328 401c0 244 73 504 304 504
c90 0 138 -54 142 -136v127h256v-568c0 -63 4 -118 68 -118c101 0 116 157 116 266c0 382 -127 612 -502 612c-352 0 -512 -254 -512 -612c0 -442 138 -704 574 -704c103 0 215 29 296 55l94 -196c-118 -27 -248 -51 -390 -51c-588 0 -830 303 -830 896
c0 491 281 804 768 804c501 0 758 -303 758 -804z" />
    <glyph glyph-name="A" unicode="A" horiz-adv-x="1038" 
d="M359 448l-96 -448h-256l384 1792h256l384 -1792h-256l-96 448h-320zM647 640l-128 768l-128 -768h256z" />
    <glyph glyph-name="B" unicode="B" horiz-adv-x="1136" 
d="M1088 512c0 -316 -196 -512 -512 -512h-448v1792h384c323 0 546 -132 546 -448c0 -233 -103 -332 -290 -384c199 -66 320 -181 320 -448zM832 512c0 224 -99 320 -320 320h-128v-640h128c221 0 320 96 320 320zM512 1024c212 0 320 104 320 320c0 253 -196 256 -448 256
v-576h128z" />
    <glyph glyph-name="C" unicode="C" horiz-adv-x="1107" 
d="M1065 576c0 -356 -118 -594 -477 -594c-385 0 -492 274 -492 659v511c0 385 107 658 492 658c361 0 477 -234 477 -594h-256c0 218 -7 384 -221 384s-236 -166 -236 -384v-640c0 -196 41 -384 236 -384c196 0 221 188 221 384v64h256v-64z" />
    <glyph glyph-name="D" unicode="D" horiz-adv-x="1133" 
d="M1037 576c0 -381 -132 -576 -514 -576h-395v1792h397c375 0 512 -136 512 -512v-704zM781 1216c0 245 -7 384 -261 384h-136v-1408h141c271 0 256 184 256 448v576z" />
    <glyph glyph-name="E" unicode="E" horiz-adv-x="861" 
d="M704 832h-320v-640h448v-192h-704v1792h704v-192h-448v-576h320v-192z" />
    <glyph glyph-name="F" unicode="F" horiz-adv-x="821" 
d="M832 1600h-448v-576h320v-192h-320v-832h-256v1792h704v-192z" />
    <glyph glyph-name="G" unicode="G" horiz-adv-x="1199" 
d="M608 192c220 0 256 214 256 448v64h-256v190h512v-894h-192l-64 192c-38 -106 -111 -210 -256 -210c-418 0 -512 294 -512 716v454c0 385 137 658 522 658c358 0 487 -234 487 -594h-256c0 218 -17 384 -231 384s-266 -166 -266 -384v-576c0 -236 35 -448 256 -448z" />
    <glyph glyph-name="H" unicode="H" horiz-adv-x="1216" 
d="M832 832h-448v-832h-256v1792h256v-768h448v768h256v-1792h-256v832z" />
    <glyph glyph-name="I" unicode="I" horiz-adv-x="542" 
d="M140 1792h256v-1792h-256v1792z" />
    <glyph glyph-name="J" unicode="J" 
d="M0 192c210 0 256 41 256 256v1344h256v-1344c0 -310 -72 -448 -384 -448h-128v192z" />
    <glyph glyph-name="K" unicode="K" horiz-adv-x="1118" 
d="M1152 0h-320l-320 832l-128 -256v-576h-256v1792h256v-768l384 768h320l-385 -704z" />
    <glyph glyph-name="L" unicode="L" horiz-adv-x="823" 
d="M128 0v1792h256v-1600h448v-192h-704z" />
    <glyph glyph-name="M" unicode="M" horiz-adv-x="1472" 
d="M640 0l-256 1414v-1414h-256v1792h354l254 -1372l254 1372h354v-1792h-256v1414l-256 -1414h-192z" />
    <glyph glyph-name="N" unicode="N" horiz-adv-x="1152" 
d="M842 0l-458 1192v-1192h-256v1792h192l448 -1108v1108h256v-1792h-182z" />
    <glyph glyph-name="O" unicode="O" horiz-adv-x="1180" 
d="M590 1810c364 0 494 -224 494 -584v-650c0 -360 -130 -594 -494 -594c-367 0 -494 229 -494 594v650c0 365 127 584 494 584zM590 1600c-192 0 -238 -118 -238 -310v-778c0 -192 46 -320 238 -320s238 128 238 320v778c0 192 -46 310 -238 310z" />
    <glyph glyph-name="P" unicode="P" horiz-adv-x="1041" 
d="M1024 1280c0 -293 -159 -448 -448 -448h-192v-832h-256v1792h448c320 0 448 -192 448 -512zM768 1280c0 249 -66 320 -320 320h-64v-576h64c216 0 320 42 320 256z" />
    <glyph glyph-name="Q" unicode="Q" horiz-adv-x="1180" 
d="M1063 -256c-153 0 -313 130 -373 245c-31 -5 -64 -7 -100 -7c-367 0 -494 229 -494 594v650c0 365 127 584 494 584c364 0 494 -224 494 -584v-650c0 -246 -61 -433 -215 -527c41 -60 136 -95 194 -95v-210zM828 1290c0 192 -46 310 -238 310s-238 -118 -238 -310v-778
c0 -192 46 -320 238 -320s238 128 238 320v778z" />
    <glyph glyph-name="R" unicode="R" horiz-adv-x="1108" 
d="M1024 1312c0 -211 -75 -362 -224 -416l288 -896h-254l-258 832h-192v-832h-256v1792h320c365 0 576 -124 576 -480zM768 1312c0 209 -113 288 -320 288h-64v-576h64c207 0 320 79 320 288z" />
    <glyph glyph-name="S" unicode="S" horiz-adv-x="1102" 
d="M787 1280c-11 170 -75 320 -256 320c-124 0 -192 -73 -192 -195c0 -111 58 -197 128 -253l320 -256c131 -106 256 -266 256 -495c0 -266 -179 -419 -448 -419c-335 0 -493 217 -512 530l256 64c9 -185 62 -384 256 -384c128 0 192 64 192 192c0 161 -99 245 -192 320
l-320 256c-110 86 -193 228 -193 418c0 266 180 432 449 432c317 0 489 -175 512 -466z" />
    <glyph glyph-name="T" unicode="T" horiz-adv-x="888" 
d="M892 1792v-228h-320v-1564h-256v1564h-320v228h896z" />
    <glyph glyph-name="U" unicode="U" horiz-adv-x="1252" 
d="M1138 640c0 -395 -114 -659 -512 -659s-512 264 -512 659v1152h256v-1152c0 -237 19 -448 256 -448s256 211 256 448v1152h256v-1152z" />
    <glyph glyph-name="V" unicode="V" horiz-adv-x="1048" 
d="M591 832l189 960h256l-384 -1792h-256l-384 1792h256l189 -960l66 -448z" />
    <glyph glyph-name="W" unicode="W" horiz-adv-x="1558" 
d="M907 1792l128 -832l63 -512l65 512l128 832h256l-320 -1792h-256l-128 832l-64 512l-64 -512l-128 -832h-256l-320 1792h256l128 -832l65 -512l63 512l128 832h256z" />
    <glyph glyph-name="X" unicode="X" horiz-adv-x="1070" 
d="M535 768l-254 -768h-256l318 929l-320 863h256l256 -704l256 704h256l-320 -859l316 -933h-254z" />
    <glyph glyph-name="Y" unicode="Y" horiz-adv-x="1018" 
d="M381 0v576l-384 1216h256l256 -896l256 896h256l-384 -1216v-576h-256z" />
    <glyph glyph-name="Z" unicode="Z" horiz-adv-x="951" 
d="M318 192h576v-192h-832v192l576 1408h-512v192h768v-192z" />
    <glyph glyph-name="bracketleft" unicode="[" horiz-adv-x="768" 
d="M128 1856h512v-128h-256v-1664h256v-128h-512v1920z" />
    <glyph glyph-name="backslash" unicode="\" horiz-adv-x="576" 
d="M512 0h-256l-192 1792h256z" />
    <glyph glyph-name="bracketright" unicode="]" horiz-adv-x="768" 
d="M640 -64h-512v128h256v1664h-256v128h512v-1920z" />
    <glyph glyph-name="asciicircum" unicode="^" horiz-adv-x="896" 
d="M576 1536l256 -640h-256l-129 448l-127 -448h-256l256 640h256z" />
    <glyph glyph-name="underscore" unicode="_" horiz-adv-x="768" 
d="M0 192h768v-192h-768v192z" />
    <glyph glyph-name="grave" unicode="`" 
d="M128 1792h256l128 -384h-128z" />
    <glyph glyph-name="a" unicode="a" horiz-adv-x="922" 
d="M439 1298c243 0 384 -164 384 -402v-576c0 -131 8 -229 33 -320h-255l-34 192c-51 -101 -108 -210 -256 -210s-256 152 -256 301c0 333 265 424 512 521v92c0 113 -21 204 -128 204c-105 0 -128 -92 -128 -204h-256c3 242 141 402 384 402zM567 640
c-101 -68 -256 -134 -256 -289c0 -96 36 -159 128 -159c62 0 101 58 128 94v354z" />
    <glyph glyph-name="b" unicode="b" horiz-adv-x="1042" 
d="M693 705c0 36 1 77 1 118c0 131 -13 265 -129 265c-71 0 -145 -23 -192 -51v-805c57 -23 126 -40 192 -40c115 0 130 186 130 354c0 58 -2 114 -2 159zM949 577c0 -260 -64 -595 -320 -595c-117 0 -197 73 -256 134v-116h-256v1791h256v-638c69 73 134 145 260 145
c313 0 316 -374 316 -704v-17z" />
    <glyph glyph-name="c" unicode="c" horiz-adv-x="901" 
d="M349 640c0 -161 -29 -448 128 -448c128 0 128 128 128 256h256c0 -281 -99 -466 -384 -466c-347 0 -384 312 -384 658s37 658 384 658c293 0 384 -175 384 -466h-256c0 120 -10 267 -128 267c-154 0 -128 -297 -128 -459z" />
    <glyph glyph-name="d" unicode="d" horiz-adv-x="1042" 
d="M349 705c0 -175 -27 -513 128 -513c66 0 135 17 192 40v805c-47 28 -121 51 -192 51c-150 0 -128 -229 -128 -383zM409 1298c121 0 193 -74 260 -145v638h256v-1791h-256v116c-59 -61 -140 -134 -256 -134c-257 0 -320 336 -320 595c0 335 -4 721 316 721z" />
    <glyph glyph-name="e" unicode="e" horiz-adv-x="910" 
d="M349 576c0 -148 -16 -384 128 -384c129 0 129 127 129 256h255c0 -295 -106 -466 -385 -466c-349 0 -383 325 -383 688c0 347 50 628 384 628s384 -281 384 -628v-30h-512v-64zM605 768c0 133 3 320 -128 320c-132 0 -128 -188 -128 -320h256z" />
    <glyph glyph-name="f" unicode="f" horiz-adv-x="620" 
d="M174 1329c0 248 41 399 290 399c62 0 94 -4 158 -12v-190c-26 2 -61 10 -86 10c-92 0 -106 -68 -106 -160v-96h192v-192h-192v-1088h-256v1088h-128v192h128v49z" />
    <glyph glyph-name="g" unicode="g" horiz-adv-x="968" 
d="M82 832c0 262 130 466 384 466c147 0 217 -60 276 -151c42 78 115 151 236 151v-210c-73 0 -124 -28 -160 -64c17 -50 32 -117 32 -192c0 -262 -123 -464 -384 -464c-28 0 -56 3 -81 7l-48 8c-12 -22 -35 -51 -35 -82c0 -93 247 -83 338 -95c172 -23 338 -75 338 -270
c0 -239 -213 -319 -448 -319c-191 0 -512 2 -512 188c0 144 92 234 192 284c-59 16 -128 52 -128 112c0 96 83 190 128 247c-79 94 -128 224 -128 384zM530 -194c91 0 224 6 224 95c0 11 -1 22 -4 33c-9 50 -76 83 -201 98l-211 25c-48 -35 -94 -111 -94 -192
c0 -76 207 -59 286 -59zM626 832c0 132 -30 288 -160 288c-132 0 -160 -156 -160 -288c0 -131 30 -272 160 -272c131 0 160 141 160 272z" />
    <glyph glyph-name="h" unicode="h" horiz-adv-x="992" 
d="M373 1142c90 82 175 156 328 156c113 0 184 -95 184 -207v-1091h-256v960c0 77 -9 128 -88 128c-72 0 -126 -40 -168 -75v-1013h-256v1792h256v-650z" />
    <glyph glyph-name="i" unicode="i" horiz-adv-x="512" 
d="M128 1280h256v-1280h-256v1280zM128 1728h256v-256h-256v256z" />
    <glyph glyph-name="j" unicode="j" horiz-adv-x="507" 
d="M86 -320c-44 0 -94 4 -128 17v182c15 -3 46 -7 64 -7c93 0 128 60 128 149v1259h256v-1287c0 -199 -123 -313 -320 -313zM150 1728h256v-256h-256v256z" />
    <glyph glyph-name="k" unicode="k" horiz-adv-x="943" 
d="M373 1792v-985l320 473h256l-287 -447l287 -833h-256l-192 619l-128 -171v-448h-256v1792h256z" />
    <glyph glyph-name="l" unicode="l" horiz-adv-x="497" 
d="M378 0h-256v1792h256v-1792z" />
    <glyph glyph-name="m" unicode="m" horiz-adv-x="1504" 
d="M1077 1088c-84 0 -145 -48 -192 -86v-1002h-256v929c0 73 7 159 -64 159c-82 0 -146 -43 -192 -81v-1007h-256v1280h256v-145c69 82 168 163 319 163c127 0 174 -57 193 -169c75 98 161 169 320 169c197 0 192 -170 192 -367v-931h-256v934c0 71 6 154 -64 154z" />
    <glyph glyph-name="n" unicode="n" horiz-adv-x="992" 
d="M373 1142c90 82 175 156 328 156c113 0 184 -95 184 -207v-1091h-256v960c0 81 -13 128 -96 128c-72 0 -118 -40 -160 -75v-1013h-256v1280h256v-138z" />
    <glyph glyph-name="o" unicode="o" horiz-adv-x="954" 
d="M477 -18c-288 0 -384 182 -384 466v384c0 284 96 466 384 466s384 -182 384 -466v-384c0 -284 -96 -466 -384 -466zM477 1088c-128 0 -128 -128 -128 -256v-384c0 -128 0 -256 128 -256s128 128 128 256v384c0 128 0 256 -128 256z" />
    <glyph glyph-name="p" unicode="p" horiz-adv-x="1042" 
d="M949 576c0 -260 -64 -594 -320 -594c-116 0 -198 72 -256 133v-499h-256v1664h256v-128c70 74 134 146 260 146c313 0 316 -374 316 -703v-19zM693 704v10c0 160 -2 387 -151 387c-70 0 -122 -37 -169 -65v-792c56 -33 121 -52 192 -52c115 0 130 186 130 353
c0 58 -2 114 -2 159z" />
    <glyph glyph-name="q" unicode="q" horiz-adv-x="1042" 
d="M409 1298c122 0 193 -75 260 -146v128h256v-1664h-256v499c-59 -62 -140 -133 -256 -133c-256 0 -320 335 -320 594c0 336 -4 722 316 722zM349 704c0 -176 -27 -512 128 -512c71 0 136 20 192 52v792c-47 28 -99 65 -169 65c-154 0 -151 -238 -151 -397z" />
    <glyph glyph-name="r" unicode="r" horiz-adv-x="680" 
d="M373 1109c46 89 147 189 279 189c13 0 22 -2 41 -4v-283c-38 15 -92 28 -142 28c-106 0 -178 -69 -178 -175v-864h-256v1280h256v-171z" />
    <glyph glyph-name="s" unicode="s" horiz-adv-x="872" 
d="M632 896c-31 81 -82 192 -192 192c-81 0 -128 -46 -128 -128c0 -50 36 -87 64 -108l256 -192c101 -81 192 -178 192 -340c0 -224 -157 -338 -384 -338c-225 0 -341 156 -384 338l192 64c29 -81 84 -192 192 -192c81 0 128 46 128 128c0 70 -28 115 -64 148l-256 192
c-97 67 -192 148 -192 300c0 224 157 338 384 338c229 0 341 -156 384 -338z" />
    <glyph glyph-name="t" unicode="t" horiz-adv-x="658" 
d="M617 -6c-64 -8 -96 -12 -158 -12c-206 0 -288 108 -290 310v796h-128v192h128v448h256v-448h192v-192h-192v-747c0 -91 14 -149 106 -149c24 0 63 6 86 10v-208z" />
    <glyph glyph-name="u" unicode="u" horiz-adv-x="992" 
d="M619 138c-91 -81 -173 -156 -326 -156c-114 0 -186 93 -186 207v1091h256v-1013c0 -53 36 -90 88 -90c75 0 125 55 168 90v1013h256v-1280h-256v138z" />
    <glyph glyph-name="v" unicode="v" horiz-adv-x="864" 
d="M304 0l-288 1280h256l160 -960l160 960h256l-286 -1280h-258z" />
    <glyph glyph-name="w" unicode="w" horiz-adv-x="1269" 
d="M635 882l-138 -882h-246l-237 1280h227l142 -972l134 972h234l136 -962l140 962h228l-248 -1280h-236z" />
    <glyph glyph-name="x" unicode="x" horiz-adv-x="838" 
d="M259 640v64l-256 576h256l152 -503l168 503h256l-256 -576v-64l256 -640h-256l-152 503l-168 -503h-256z" />
    <glyph glyph-name="y" unicode="y" horiz-adv-x="842" 
d="M74 -128c132 0 226 56 226 186l-290 1222h256c54 -299 110 -595 161 -896c48 304 106 597 159 896h256l-320 -1344c-46 -199 -202 -256 -448 -256v192z" />
    <glyph glyph-name="z" unicode="z" horiz-adv-x="782" 
d="M489 1088h-384v192h640v-192l-448 -896h448v-192h-704v192z" />
    <glyph glyph-name="braceleft" unicode="{" horiz-adv-x="704" 
d="M448 1408c0 -231 -42 -442 -192 -512c129 -55 192 -193 192 -384c0 -200 -3 -384 192 -384v-192c-359 0 -448 207 -448 576c0 148 15 256 -128 256v256c146 0 128 225 128 384c0 341 106 448 448 448v-192c-182 0 -192 -70 -192 -256z" />
    <glyph glyph-name="bar" unicode="|" horiz-adv-x="384" 
d="M128 1920h192v-2048h-192v2048z" />
    <glyph glyph-name="braceright" unicode="}" horiz-adv-x="704" 
d="M64 128c194 0 192 183 192 384c0 190 63 330 192 384c-150 67 -192 284 -192 512c0 187 -8 256 -192 256v192c339 0 448 -108 448 -448c0 -159 -19 -384 128 -384v-256c-142 0 -128 -108 -128 -256c0 -370 -87 -576 -448 -576v192z" />
    <glyph glyph-name="asciitilde" unicode="~" horiz-adv-x="960" 
d="M613 812c-115 0 -185 87 -284 87c-37 0 -48 -25 -48 -67h-154c0 145 73 273 220 273c113 0 180 -86 281 -86c37 0 51 27 51 69h154c0 -148 -70 -276 -220 -276z" />
    <glyph glyph-name="exclamdown" unicode="&#xa1;" horiz-adv-x="384" 
d="M128 1152h128v-1152h-192zM64 1536h256v-256h-256v256z" />
    <glyph glyph-name="cent" unicode="&#xa2;" horiz-adv-x="1027" 
d="M479 -15c-298 24 -350 225 -350 547v201c0 314 62 533 350 561v114h78v-114c245 -28 340 -194 340 -463l-256 1c0 112 -7 206 -84 241v-866c82 40 84 145 84 266h256c0 -12 1 -27 1 -43c0 -249 -113 -418 -341 -444v-114h-78v113zM479 1071c-113 -54 -94 -260 -94 -431
c0 -168 -25 -387 94 -434v865z" />
    <glyph glyph-name="sterling" unicode="&#xa3;" horiz-adv-x="896" 
d="M640 1344c0 118 -11 256 -128 256c-114 0 -125 -152 -128 -270v-370h256v-192h-256v-576h448v-192h-832v128l128 63v577h-128v192h128v192c0 346 37 658 384 658c231 0 318 -163 320 -388v-78h-192z" />
    <glyph glyph-name="currency" unicode="&#xa4;" horiz-adv-x="1024" 
d="M281 1217c60 39 133 63 231 63s171 -24 231 -63l86 86l90 -90l-87 -87c39 -60 64 -136 64 -229c0 -94 -25 -171 -64 -232l87 -86l-90 -90l-86 86c-60 -39 -133 -63 -231 -63s-171 24 -231 63l-86 -86l-90 90l86 86c-40 61 -63 138 -63 232c0 93 24 170 63 230l-86 86
l90 90zM320 897c0 -124 67 -215 192 -215s192 90 192 214s-67 214 -192 214c-126 0 -192 -89 -192 -213z" />
    <glyph glyph-name="yen" unicode="&#xa5;" horiz-adv-x="1024" 
d="M384 0v256h-192v168h192v129h-192v166h149l-293 1073h260l204 -944l202 944h260l-295 -1073h153v-166h-192v-129h192v-168h-192v-256h-256z" />
    <glyph glyph-name="brokenbar" unicode="&#xa6;" horiz-adv-x="395" 
d="M94 614h203v-628h-203v628zM94 1518h203v-629h-203v629z" />
    <glyph glyph-name="section" unicode="&#xa7;" horiz-adv-x="960" 
d="M672 1408c-31 81 -82 192 -192 192c-81 0 -128 -46 -128 -128c0 -50 36 -87 64 -108c192 -106 448 -221 448 -482c0 -139 -64 -232 -158 -286c81 -65 158 -146 158 -275c0 -224 -157 -338 -384 -338c-226 0 -341 157 -384 338l192 64c29 -81 85 -192 192 -192
c81 0 128 46 128 128c0 66 -26 125 -64 148l-256 156c-106 63 -192 141 -192 300c0 152 74 251 186 301c-91 53 -186 114 -186 246c0 224 157 338 384 338c228 0 341 -156 384 -338zM512 754c47 22 96 58 96 128c0 84 -109 152 -160 192c-47 -28 -96 -74 -96 -149
c0 -49 34 -89 64 -108z" />
    <glyph glyph-name="dieresis" unicode="&#xa8;" horiz-adv-x="896" 
d="M128 1792h256v-256h-256v256zM512 1792h256v-256h-256v256z" />
    <glyph glyph-name="copyright" unicode="&#xa9;" horiz-adv-x="1528" 
d="M655 721c0 -145 -25 -356 113 -356c99 0 106 113 106 213h179v-16c0 -196 -84 -345 -285 -345c-277 0 -293 229 -293 506c0 261 37 457 299 457c206 0 281 -137 281 -340h-183c0 91 -8 196 -96 196c-143 0 -121 -160 -121 -315zM764 1260c-314 0 -522 -250 -522 -564
c0 -312 212 -563 522 -563c311 0 522 251 522 563c0 315 -210 564 -522 564zM70 700c0 407 288 715 694 715s694 -309 694 -715s-289 -714 -694 -714c-406 0 -694 309 -694 714z" />
    <glyph glyph-name="ordfeminine" unicode="&#xaa;" horiz-adv-x="842" 
d="M141 568c3 174 98 295 272 295c215 0 265 -127 265 -342v-521h-177v111c-37 -68 -111 -121 -200 -121c-111 0 -193 82 -193 193c0 205 213 253 377 303v94c0 71 -13 139 -76 139c-73 0 -90 -72 -90 -151h-178zM485 408c-80 -43 -182 -91 -182 -180c0 -52 25 -84 71 -84
c50 0 93 37 111 75v189z" />
    <glyph glyph-name="guillemotleft" unicode="&#xab;" horiz-adv-x="1024" 
d="M64 704l448 512v-320l-256 -255l256 -257v-320l-448 512v128zM512 704l448 512v-320l-256 -255l256 -257v-320l-448 512v128z" />
    <glyph glyph-name="logicalnot" unicode="&#xac;" horiz-adv-x="768" 
d="M128 640h512v-384h-128v192h-384v192z" />
    <glyph glyph-name="uni00AD" unicode="&#xad;" horiz-adv-x="768" 
d="M128 640h512v-192h-512v192z" />
    <glyph glyph-name="registered" unicode="&#xae;" horiz-adv-x="1528" 
d="M764 1260c-314 0 -522 -250 -522 -564c0 -312 212 -563 522 -563c311 0 522 251 522 563c0 315 -210 564 -522 564zM70 700c0 407 288 715 694 715s694 -309 694 -715s-289 -714 -694 -714c-406 0 -694 309 -694 714zM1049 248h-168l-127 385h-82v-385h-156v919h240
c184 0 270 -94 270 -274c0 -119 -50 -182 -125 -223zM705 729c125 0 161 39 161 168c0 96 -32 152 -123 152h-71v-320h33z" />
    <glyph glyph-name="macron" unicode="&#xaf;" 
d="M123 1559h434v-152h-434v152z" />
    <glyph glyph-name="degree" unicode="&#xb0;" horiz-adv-x="1024" 
d="M512 1810c241 0 384 -147 384 -383c0 -237 -143 -385 -384 -385c-242 0 -384 148 -384 385s144 383 384 383zM320 1427c0 -124 67 -215 192 -215s192 90 192 214s-67 214 -192 214c-126 0 -192 -89 -192 -213z" />
    <glyph glyph-name="plusminus" unicode="&#xb1;" horiz-adv-x="832" 
d="M128 192h576v-192h-576v192zM320 384v192h-192v192h192v192h192v-192h192v-192h-192v-192h-192z" />
    <glyph glyph-name="uni00B2" unicode="&#xb2;" 
d="M576 1216c0 -204 -217 -375 -320 -512h320v-128h-512v128l192 256c54 71 128 147 128 256c0 64 0 128 -64 128s-64 -64 -64 -128h-192c0 161 91 256 256 256s256 -95 256 -256z" />
    <glyph glyph-name="uni00B3" unicode="&#xb3;" horiz-adv-x="768" 
d="M320 1152c98 0 128 33 128 128c0 64 0 128 -64 128s-64 -64 -64 -128h-192c0 161 91 256 256 256s256 -95 256 -256c0 -124 -77 -188 -192 -192c115 -8 192 -65 192 -192c0 -161 -91 -256 -256 -256s-256 94 -256 256h192c0 -64 0 -128 64 -128s64 64 64 128
c0 94 -31 128 -128 128v128z" />
    <glyph glyph-name="acute" unicode="&#xb4;" 
d="M256 1408h-128l128 384h256z" />
    <glyph glyph-name="uni00B5" unicode="&#xb5;" horiz-adv-x="1024" 
d="M640 138c-41 -90 -134 -134 -256 -138v-256h-256v1536h256v-1013c0 -53 36 -90 88 -90c75 0 125 55 168 90v1013h256v-1280h-256v138z" />
    <glyph glyph-name="paragraph" unicode="&#xb6;" horiz-adv-x="952" 
d="M382 876c-213 0 -366 115 -366 328c0 233 159 332 407 332h473v-1536h-178v876h-139v-876h-197v876z" />
    <glyph glyph-name="cedilla" unicode="&#xb8;" horiz-adv-x="576" 
d="M256 -128c94 -26 256 -77 256 -192c0 -180 -179 -192 -363 -192h-85v128c31 0 70 -2 108 -2c76 0 148 9 148 66c0 67 -139 108 -192 128v192h128v-128z" />
    <glyph glyph-name="uni00B9" unicode="&#xb9;" horiz-adv-x="512" 
d="M64 1344c103 51 189 109 256 192h64v-896h-192v576h-128v128z" />
    <glyph glyph-name="ordmasculine" unicode="&#xba;" horiz-adv-x="899" 
d="M450 -14c-263 0 -351 162 -351 424v319c0 262 88 424 351 424c250 0 350 -174 350 -424v-319c0 -250 -100 -424 -350 -424zM574 688c0 140 4 264 -129 264c-130 0 -133 -126 -133 -264v-237c0 -138 3 -265 133 -265c131 0 129 126 129 265v237z" />
    <glyph glyph-name="guillemotright" unicode="&#xbb;" horiz-adv-x="1024" 
d="M960 576l-448 -512v320l256 257l-256 255v320l448 -512v-128zM512 576l-448 -512v320l256 257l-256 255v320l448 -512v-128z" />
    <glyph glyph-name="onequarter" unicode="&#xbc;" horiz-adv-x="1601" 
d="M1216 258h-320v128l340 576h172v-576h128v-128h-128v-256h-192v256zM1216 386v256l-128 -256h128zM895 1792h257l-576 -1792h-256zM64 1344c103 51 189 109 256 192h64v-896h-192v576h-128v128z" />
    <glyph glyph-name="onehalf" unicode="&#xbd;" horiz-adv-x="1600" 
d="M1536 642c0 -204 -217 -375 -320 -512h320v-128h-512v128l192 256c54 71 128 147 128 256c0 64 0 128 -64 128s-64 -64 -64 -128h-192c0 161 91 256 256 256s256 -95 256 -256zM895 1792h257l-576 -1792h-256zM64 1344c103 51 189 109 256 192h64v-896h-192v576h-128v128
z" />
    <glyph glyph-name="threequarters" unicode="&#xbe;" horiz-adv-x="1793" 
d="M1344 258h-320v128l340 576h172v-576h128v-128h-128v-256h-192v256zM1344 386v256l-128 -256h128zM1023 1792h257l-576 -1792h-256zM320 1152c98 0 128 33 128 128c0 64 0 128 -64 128s-64 -64 -64 -128h-192c0 161 91 256 256 256s256 -95 256 -256
c0 -124 -77 -188 -192 -192c115 -8 192 -65 192 -192c0 -161 -91 -256 -256 -256s-256 94 -256 256h192c0 -64 0 -128 64 -128s64 64 64 128c0 94 -31 128 -128 128v128z" />
    <glyph glyph-name="questiondown" unicode="&#xbf;" horiz-adv-x="891" 
d="M80 346c0 199 163 358 269 466v217h216v-269c-80 -101 -247 -265 -247 -432c0 -78 32 -126 112 -126c116 0 141 104 141 219h219v-25c0 -241 -118 -401 -360 -401c-236 0 -350 119 -350 351zM564 1106h-221v223h221v-223z" />
    <glyph glyph-name="Agrave" unicode="&#xc0;" horiz-adv-x="1038" 
d="M199 2296h256l128 -384h-128zM359 448l-96 -448h-256l384 1792h256l384 -1792h-256l-96 448h-320zM647 640l-128 768l-128 -768h256z" />
    <glyph glyph-name="Aacute" unicode="&#xc1;" horiz-adv-x="1038" 
d="M583 1912h-128l128 384h256zM359 448l-96 -448h-256l384 1792h256l384 -1792h-256l-96 448h-320zM647 640l-128 768l-128 -768h256z" />
    <glyph glyph-name="Acircumflex" unicode="&#xc2;" horiz-adv-x="1038" 
d="M519 2168l-128 -256h-192l192 384h256l192 -384h-192zM359 448l-96 -448h-256l384 1792h256l384 -1792h-256l-96 448h-320zM647 640l-128 768l-128 -768h256z" />
    <glyph glyph-name="Atilde" unicode="&#xc3;" horiz-adv-x="1038" 
d="M652 1912c-115 0 -185 87 -284 87c-37 0 -48 -25 -48 -67h-154c0 145 73 273 220 273c113 0 180 -86 281 -86c37 0 51 27 51 69h154c0 -146 -73 -276 -220 -276zM359 448l-96 -448h-256l384 1792h256l384 -1792h-256l-96 448h-320zM647 640l-128 768l-128 -768h256z" />
    <glyph glyph-name="Adieresis" unicode="&#xc4;" horiz-adv-x="1038" 
d="M199 2168h256v-256h-256v256zM583 2168h256v-256h-256v256zM359 448l-96 -448h-256l384 1792h256l384 -1792h-256l-96 448h-320zM647 640l-128 768l-128 -768h256z" />
    <glyph glyph-name="Aring" unicode="&#xc5;" horiz-adv-x="1038" 
d="M647 2112.93c0 79 -48 128 -128 128c-81 0 -128 -49 -128 -128s47 -128 128 -128c80 0 128 49 128 128zM263 2112.93c0 154 100 256 256 256c157 0 256 -102 256 -256s-100 -256 -256 -256c-157 0 -256 102 -256 256zM359 448l-96 -448h-256l384 1792h256l384 -1792h-256
l-96 448h-320zM647 640l-128 768l-128 -768h256z" />
    <glyph glyph-name="AE" unicode="&#xc6;" horiz-adv-x="1408" 
d="M1216 832h-320v-640h448v-192h-704v448h-320l-191 -448h-255l764 1792h706v-192h-448v-576h320v-192zM640 640v658l-247 -658h247z" />
    <glyph glyph-name="Ccedilla" unicode="&#xc7;" horiz-adv-x="1107" 
d="M644.5 -128.934c94 -26 256 -77 256 -192c0 -180 -179 -192 -363 -192h-85v128c31 0 70 -2 108 -2c76 0 148 9 148 66c0 67 -139 108 -192 128v192h128v-128zM1065 576c0 -356 -118 -594 -477 -594c-385 0 -492 274 -492 659v511c0 385 107 658 492 658
c361 0 477 -234 477 -594h-256c0 218 -7 384 -221 384s-236 -166 -236 -384v-640c0 -196 41 -384 236 -384c196 0 221 188 221 384v64h256v-64z" />
    <glyph glyph-name="Egrave" unicode="&#xc8;" horiz-adv-x="861" 
d="M160 2296h256l128 -384h-128zM704 832h-320v-640h448v-192h-704v1792h704v-192h-448v-576h320v-192z" />
    <glyph glyph-name="Eacute" unicode="&#xc9;" horiz-adv-x="861" 
d="M544 1912h-128l128 384h256zM704 832h-320v-640h448v-192h-704v1792h704v-192h-448v-576h320v-192z" />
    <glyph glyph-name="Ecircumflex" unicode="&#xca;" horiz-adv-x="861" 
d="M480 2168l-128 -256h-192l192 384h256l192 -384h-192zM704 832h-320v-640h448v-192h-704v1792h704v-192h-448v-576h320v-192z" />
    <glyph glyph-name="Edieresis" unicode="&#xcb;" horiz-adv-x="861" 
d="M160 2168h256v-256h-256v256zM544 2168h256v-256h-256v256zM704 832h-320v-640h448v-192h-704v1792h704v-192h-448v-576h320v-192z" />
    <glyph glyph-name="Igrave" unicode="&#xcc;" horiz-adv-x="542" 
d="M-52 2296h256l128 -384h-128zM140 1792h256v-1792h-256v1792z" />
    <glyph glyph-name="Iacute" unicode="&#xcd;" horiz-adv-x="542" 
d="M332 1912h-128l128 384h256zM140 1792h256v-1792h-256v1792z" />
    <glyph glyph-name="Icircumflex" unicode="&#xce;" horiz-adv-x="542" 
d="M268 2168l-128 -256h-192l192 384h256l192 -384h-192zM140 1792h256v-1792h-256v1792z" />
    <glyph glyph-name="Idieresis" unicode="&#xcf;" horiz-adv-x="542" 
d="M-52 2168h256v-256h-256v256zM332 2168h256v-256h-256v256zM140 1792h256v-1792h-256v1792z" />
    <glyph glyph-name="Eth" unicode="&#xd0;" horiz-adv-x="1152" 
d="M1024 576c0 -381 -132 -576 -514 -576h-382v852h-94v152h94v788h384c375 0 512 -136 512 -512v-704zM768 1216c0 245 -7 384 -261 384h-123v-596h144v-152h-144v-660h128c271 0 256 184 256 448v576z" />
    <glyph glyph-name="Ntilde" unicode="&#xd1;" horiz-adv-x="1152" 
d="M709 1912c-115 0 -185 87 -284 87c-37 0 -48 -25 -48 -67h-154c0 145 73 273 220 273c113 0 180 -86 281 -86c37 0 51 27 51 69h154c0 -146 -73 -276 -220 -276zM842 0l-458 1192v-1192h-256v1792h192l448 -1108v1108h256v-1792h-182z" />
    <glyph glyph-name="Ograve" unicode="&#xd2;" horiz-adv-x="1180" 
d="M270 2296h256l128 -384h-128zM590 1810c364 0 494 -224 494 -584v-650c0 -360 -130 -594 -494 -594c-367 0 -494 229 -494 594v650c0 365 127 584 494 584zM590 1600c-192 0 -238 -118 -238 -310v-778c0 -192 46 -320 238 -320s238 128 238 320v778
c0 192 -46 310 -238 310z" />
    <glyph glyph-name="Oacute" unicode="&#xd3;" horiz-adv-x="1180" 
d="M654 1912h-128l128 384h256zM590 1810c364 0 494 -224 494 -584v-650c0 -360 -130 -594 -494 -594c-367 0 -494 229 -494 594v650c0 365 127 584 494 584zM590 1600c-192 0 -238 -118 -238 -310v-778c0 -192 46 -320 238 -320s238 128 238 320v778
c0 192 -46 310 -238 310z" />
    <glyph glyph-name="Ocircumflex" unicode="&#xd4;" horiz-adv-x="1180" 
d="M590 2168l-128 -256h-192l192 384h256l192 -384h-192zM590 1810c364 0 494 -224 494 -584v-650c0 -360 -130 -594 -494 -594c-367 0 -494 229 -494 594v650c0 365 127 584 494 584zM590 1600c-192 0 -238 -118 -238 -310v-778c0 -192 46 -320 238 -320s238 128 238 320
v778c0 192 -46 310 -238 310z" />
    <glyph glyph-name="Otilde" unicode="&#xd5;" horiz-adv-x="1180" 
d="M723 1912c-115 0 -185 87 -284 87c-37 0 -48 -25 -48 -67h-154c0 145 73 273 220 273c113 0 180 -86 281 -86c37 0 51 27 51 69h154c0 -146 -73 -276 -220 -276zM590 1810c364 0 494 -224 494 -584v-650c0 -360 -130 -594 -494 -594c-367 0 -494 229 -494 594v650
c0 365 127 584 494 584zM590 1600c-192 0 -238 -118 -238 -310v-778c0 -192 46 -320 238 -320s238 128 238 320v778c0 192 -46 310 -238 310z" />
    <glyph glyph-name="Odieresis" unicode="&#xd6;" horiz-adv-x="1180" 
d="M270 2168h256v-256h-256v256zM654 2168h256v-256h-256v256zM590 1810c364 0 494 -224 494 -584v-650c0 -360 -130 -594 -494 -594c-367 0 -494 229 -494 594v650c0 365 127 584 494 584zM590 1600c-192 0 -238 -118 -238 -310v-778c0 -192 46 -320 238 -320
s238 128 238 320v778c0 192 -46 310 -238 310z" />
    <glyph glyph-name="multiply" unicode="&#xd7;" horiz-adv-x="768" 
d="M384 512l-192 -192l-128 128l192 192l-192 192l128 128l192 -192l192 192l128 -128l-192 -192l192 -192l-128 -128z" />
    <glyph glyph-name="Oslash" unicode="&#xd8;" horiz-adv-x="1180" 
d="M364 -155.8l-90 27.7988l45.0488 170.658c-161.43 90.8408 -223.049 279.099 -223.049 533.343v650c0 365 127 584 494 584c71.7861 0 134.472 -8.71191 188.854 -25.4619l42.1465 159.662l93 -24.2002l-46.1299 -174.102
c155.208 -90.7451 216.13 -273.455 216.13 -519.898v-650c0 -360 -130 -594 -494 -594c-69.3711 0 -130.167 8.18164 -183.151 23.918zM590 1600c-192 0 -238 -117.999 -238 -309.999v-778c0 -84.5195 8.91406 -156.637 35.2725 -210.893l335.304 1270.23
c-33.5527 18.75 -76.9336 28.6602 -132.576 28.6602zM798.562 1484.31l-335.175 -1265.01c32.6846 -17.7686 74.2109 -27.3037 126.613 -27.3037c192 0 238 128 238 320v778c0 77.9502 -7.58203 143.703 -29.4385 194.314z" />
    <glyph glyph-name="Ugrave" unicode="&#xd9;" horiz-adv-x="1252" 
d="M306 2296h256l128 -384h-128zM1138 640c0 -395 -114 -659 -512 -659s-512 264 -512 659v1152h256v-1152c0 -237 19 -448 256 -448s256 211 256 448v1152h256v-1152z" />
    <glyph glyph-name="Uacute" unicode="&#xda;" horiz-adv-x="1252" 
d="M690 1912h-128l128 384h256zM1138 640c0 -395 -114 -659 -512 -659s-512 264 -512 659v1152h256v-1152c0 -237 19 -448 256 -448s256 211 256 448v1152h256v-1152z" />
    <glyph glyph-name="Ucircumflex" unicode="&#xdb;" horiz-adv-x="1252" 
d="M626 2168l-128 -256h-192l192 384h256l192 -384h-192zM1138 640c0 -395 -114 -659 -512 -659s-512 264 -512 659v1152h256v-1152c0 -237 19 -448 256 -448s256 211 256 448v1152h256v-1152z" />
    <glyph glyph-name="Udieresis" unicode="&#xdc;" horiz-adv-x="1252" 
d="M306 2168h256v-256h-256v256zM690 2168h256v-256h-256v256zM1138 640c0 -395 -114 -659 -512 -659s-512 264 -512 659v1152h256v-1152c0 -237 19 -448 256 -448s256 211 256 448v1152h256v-1152z" />
    <glyph glyph-name="Yacute" unicode="&#xdd;" horiz-adv-x="1018" 
d="M573 1912h-128l128 384h256zM381 0v576l-384 1216h256l256 -896l256 896h256l-384 -1216v-576h-256z" />
    <glyph glyph-name="Thorn" unicode="&#xde;" horiz-adv-x="952" 
d="M457 364h-131v-364h-254v1792h252v-381h180c295 0 427 -201 427 -525c0 -353 -159 -522 -474 -522zM369 581c193 0 300 61 300 307c0 222 -83 300 -268 300h-77v-607h45z" />
    <glyph glyph-name="germandbls" unicode="&#xdf;" horiz-adv-x="1152" 
d="M512 192c213 0 256 104 256 320c0 182 -82 300 -256 300v212c155 0 199 162 199 320c0 144 -24 256 -167 256c-135 0 -160 -104 -160 -241v-1359h-256v1354c0 265 126 456 384 456c302 0 448 -169 448 -466c0 -210 -76 -326 -219 -405c175 -48 283 -203 283 -427
c0 -350 -159 -530 -512 -530v210z" />
    <glyph glyph-name="agrave" unicode="&#xe0;" horiz-adv-x="922" 
d="M135.5 1784h256l128 -384h-128zM439 1298c243 0 384 -164 384 -402v-576c0 -131 8 -229 33 -320h-255l-34 192c-51 -101 -108 -210 -256 -210s-256 152 -256 301c0 333 265 424 512 521v92c0 113 -21 204 -128 204c-105 0 -128 -92 -128 -204h-256c3 242 141 402 384 402
zM567 640c-101 -68 -256 -134 -256 -289c0 -96 36 -159 128 -159c62 0 101 58 128 94v354z" />
    <glyph glyph-name="aacute" unicode="&#xe1;" horiz-adv-x="922" 
d="M519.5 1400h-128l128 384h256zM439 1298c243 0 384 -164 384 -402v-576c0 -131 8 -229 33 -320h-255l-34 192c-51 -101 -108 -210 -256 -210s-256 152 -256 301c0 333 265 424 512 521v92c0 113 -21 204 -128 204c-105 0 -128 -92 -128 -204h-256c3 242 141 402 384 402z
M567 640c-101 -68 -256 -134 -256 -289c0 -96 36 -159 128 -159c62 0 101 58 128 94v354z" />
    <glyph glyph-name="acircumflex" unicode="&#xe2;" horiz-adv-x="922" 
d="M455.5 1656l-128 -256h-192l192 384h256l192 -384h-192zM439 1298c243 0 384 -164 384 -402v-576c0 -131 8 -229 33 -320h-255l-34 192c-51 -101 -108 -210 -256 -210s-256 152 -256 301c0 333 265 424 512 521v92c0 113 -21 204 -128 204c-105 0 -128 -92 -128 -204
h-256c3 242 141 402 384 402zM567 640c-101 -68 -256 -134 -256 -289c0 -96 36 -159 128 -159c62 0 101 58 128 94v354z" />
    <glyph glyph-name="atilde" unicode="&#xe3;" horiz-adv-x="922" 
d="M588.5 1400c-115 0 -185 87 -284 87c-37 0 -48 -25 -48 -67h-154c0 145 73 273 220 273c113 0 180 -86 281 -86c37 0 51 27 51 69h154c0 -146 -73 -276 -220 -276zM439 1298c243 0 384 -164 384 -402v-576c0 -131 8 -229 33 -320h-255l-34 192
c-51 -101 -108 -210 -256 -210s-256 152 -256 301c0 333 265 424 512 521v92c0 113 -21 204 -128 204c-105 0 -128 -92 -128 -204h-256c3 242 141 402 384 402zM567 640c-101 -68 -256 -134 -256 -289c0 -96 36 -159 128 -159c62 0 101 58 128 94v354z" />
    <glyph glyph-name="adieresis" unicode="&#xe4;" horiz-adv-x="922" 
d="M135.5 1656h256v-256h-256v256zM519.5 1656h256v-256h-256v256zM439 1298c243 0 384 -164 384 -402v-576c0 -131 8 -229 33 -320h-255l-34 192c-51 -101 -108 -210 -256 -210s-256 152 -256 301c0 333 265 424 512 521v92c0 113 -21 204 -128 204
c-105 0 -128 -92 -128 -204h-256c3 242 141 402 384 402zM567 640c-101 -68 -256 -134 -256 -289c0 -96 36 -159 128 -159c62 0 101 58 128 94v354z" />
    <glyph glyph-name="aring" unicode="&#xe5;" horiz-adv-x="922" 
d="M583.5 1656c0 79 -48 128 -128 128c-81 0 -128 -49 -128 -128s47 -128 128 -128c80 0 128 49 128 128zM199.5 1656c0 154 100 256 256 256c157 0 256 -102 256 -256s-100 -256 -256 -256c-157 0 -256 102 -256 256zM439 1298c243 0 384 -164 384 -402v-576
c0 -131 8 -229 33 -320h-255l-34 192c-51 -101 -108 -210 -256 -210s-256 152 -256 301c0 333 265 424 512 521v92c0 113 -21 204 -128 204c-105 0 -128 -92 -128 -204h-256c3 242 141 402 384 402zM567 640c-101 -68 -256 -134 -256 -289c0 -96 36 -159 128 -159
c62 0 101 58 128 94v354z" />
    <glyph glyph-name="ae" unicode="&#xe6;" horiz-adv-x="1465" 
d="M609 580c-126 -33 -256 -80 -256 -229c0 -96 36 -159 128 -159c77 0 134 57 171 99c-23 84 -40 181 -43 289zM864 576c0 -149 -17 -391 128 -391c119 0 116 143 116 263h255c0 -290 -99 -466 -372 -466c-162 0 -255 73 -307 197c-73 -106 -155 -197 -331 -197
c-148 0 -256 152 -256 301c0 313 249 384 512 442v171c0 113 -21 204 -128 204c-105 0 -128 -92 -128 -204h-256c3 241 142 402 384 402c126 0 224 -56 256 -152c46 82 130 152 255 152c243 0 362 -171 362 -418c0 -264 -249 -239 -490 -261v-43zM1120 904
c0 94 -33 184 -128 184c-132 0 -128 -192 -128 -324h117c93 14 139 30 139 140z" />
    <glyph glyph-name="ccedilla" unicode="&#xe7;" horiz-adv-x="901" 
d="M541 -128.934c94 -26 256 -77 256 -192c0 -180 -179 -192 -363 -192h-85v128c31 0 70 -2 108 -2c76 0 148 9 148 66c0 67 -139 108 -192 128v192h128v-128zM349 640c0 -161 -29 -448 128 -448c128 0 128 128 128 256h256c0 -281 -99 -466 -384 -466
c-347 0 -384 312 -384 658s37 658 384 658c293 0 384 -175 384 -466h-256c0 120 -10 267 -128 267c-154 0 -128 -297 -128 -459z" />
    <glyph glyph-name="egrave" unicode="&#xe8;" horiz-adv-x="910" 
d="M157 1784h256l128 -384h-128zM349 576c0 -148 -16 -384 128 -384c129 0 129 127 129 256h255c0 -295 -106 -466 -385 -466c-349 0 -383 325 -383 688c0 347 50 628 384 628s384 -281 384 -628v-30h-512v-64zM605 768c0 133 3 320 -128 320c-132 0 -128 -188 -128 -320
h256z" />
    <glyph glyph-name="eacute" unicode="&#xe9;" horiz-adv-x="910" 
d="M541 1400h-128l128 384h256zM349 576c0 -148 -16 -384 128 -384c129 0 129 127 129 256h255c0 -295 -106 -466 -385 -466c-349 0 -383 325 -383 688c0 347 50 628 384 628s384 -281 384 -628v-30h-512v-64zM605 768c0 133 3 320 -128 320c-132 0 -128 -188 -128 -320h256
z" />
    <glyph glyph-name="ecircumflex" unicode="&#xea;" horiz-adv-x="910" 
d="M477 1656l-128 -256h-192l192 384h256l192 -384h-192zM349 576c0 -148 -16 -384 128 -384c129 0 129 127 129 256h255c0 -295 -106 -466 -385 -466c-349 0 -383 325 -383 688c0 347 50 628 384 628s384 -281 384 -628v-30h-512v-64zM605 768c0 133 3 320 -128 320
c-132 0 -128 -188 -128 -320h256z" />
    <glyph glyph-name="edieresis" unicode="&#xeb;" horiz-adv-x="910" 
d="M157 1656h256v-256h-256v256zM541 1656h256v-256h-256v256zM349 576c0 -148 -16 -384 128 -384c129 0 129 127 129 256h255c0 -295 -106 -466 -385 -466c-349 0 -383 325 -383 688c0 347 50 628 384 628s384 -281 384 -628v-30h-512v-64zM605 768c0 133 3 320 -128 320
c-132 0 -128 -188 -128 -320h256z" />
    <glyph glyph-name="igrave" unicode="&#xec;" horiz-adv-x="512" 
d="M-64 1784h256l128 -384h-128zM128 1280h256v-1280h-256v1280z" />
    <glyph glyph-name="iacute" unicode="&#xed;" horiz-adv-x="512" 
d="M320 1400h-128l128 384h256zM128 1280h256v-1280h-256v1280z" />
    <glyph glyph-name="icircumflex" unicode="&#xee;" horiz-adv-x="512" 
d="M256 1656l-128 -256h-192l192 384h256l192 -384h-192zM128 1280h256v-1280h-256v1280z" />
    <glyph glyph-name="idieresis" unicode="&#xef;" horiz-adv-x="512" 
d="M-64 1656h256v-256h-256v256zM320 1656h256v-256h-256v256zM128 1280h256v-1280h-256v1280z" />
    <glyph glyph-name="eth" unicode="&#xf0;" horiz-adv-x="1152" 
d="M1024 576c0 -323 -134 -594 -448 -594c-364 0 -447 292 -447 658c0 314 78 658 383 658c120 0 227 -61 256 -146c0 127 -19 221 -69 294l-443 -102v128l320 74c-103 46 -230 54 -384 54v210c296 0 532 -41 668 -199l228 53v-128l-156 -36c69 -142 92 -318 92 -540v-384z
M384 704c0 -212 -2 -512 192 -512c153 0 192 164 192 320v466c-39 57 -95 110 -192 110c-128 0 -192 -128 -192 -384z" />
    <glyph glyph-name="ntilde" unicode="&#xf1;" horiz-adv-x="992" 
d="M634 1400c-115 0 -185 87 -284 87c-37 0 -48 -25 -48 -67h-154c0 145 73 273 220 273c113 0 180 -86 281 -86c37 0 51 27 51 69h154c0 -146 -73 -276 -220 -276zM373 1142c90 82 175 156 328 156c113 0 184 -95 184 -207v-1091h-256v960c0 81 -13 128 -96 128
c-72 0 -118 -40 -160 -75v-1013h-256v1280h256v-138z" />
    <glyph glyph-name="ograve" unicode="&#xf2;" horiz-adv-x="954" 
d="M157 1784h256l128 -384h-128zM477 -18c-288 0 -384 182 -384 466v384c0 284 96 466 384 466s384 -182 384 -466v-384c0 -284 -96 -466 -384 -466zM477 1088c-128 0 -128 -128 -128 -256v-384c0 -128 0 -256 128 -256s128 128 128 256v384c0 128 0 256 -128 256z" />
    <glyph glyph-name="oacute" unicode="&#xf3;" horiz-adv-x="954" 
d="M541 1400h-128l128 384h256zM477 -18c-288 0 -384 182 -384 466v384c0 284 96 466 384 466s384 -182 384 -466v-384c0 -284 -96 -466 -384 -466zM477 1088c-128 0 -128 -128 -128 -256v-384c0 -128 0 -256 128 -256s128 128 128 256v384c0 128 0 256 -128 256z" />
    <glyph glyph-name="ocircumflex" unicode="&#xf4;" horiz-adv-x="954" 
d="M477 1656l-128 -256h-192l192 384h256l192 -384h-192zM477 -18c-288 0 -384 182 -384 466v384c0 284 96 466 384 466s384 -182 384 -466v-384c0 -284 -96 -466 -384 -466zM477 1088c-128 0 -128 -128 -128 -256v-384c0 -128 0 -256 128 -256s128 128 128 256v384
c0 128 0 256 -128 256z" />
    <glyph glyph-name="otilde" unicode="&#xf5;" horiz-adv-x="954" 
d="M610 1400c-115 0 -185 87 -284 87c-37 0 -48 -25 -48 -67h-154c0 145 73 273 220 273c113 0 180 -86 281 -86c37 0 51 27 51 69h154c0 -146 -73 -276 -220 -276zM477 -18c-288 0 -384 182 -384 466v384c0 284 96 466 384 466s384 -182 384 -466v-384
c0 -284 -96 -466 -384 -466zM477 1088c-128 0 -128 -128 -128 -256v-384c0 -128 0 -256 128 -256s128 128 128 256v384c0 128 0 256 -128 256z" />
    <glyph glyph-name="odieresis" unicode="&#xf6;" horiz-adv-x="954" 
d="M157 1656h256v-256h-256v256zM541 1656h256v-256h-256v256zM477 -18c-288 0 -384 182 -384 466v384c0 284 96 466 384 466s384 -182 384 -466v-384c0 -284 -96 -466 -384 -466zM477 1088c-128 0 -128 -128 -128 -256v-384c0 -128 0 -256 128 -256s128 128 128 256v384
c0 128 0 256 -128 256z" />
    <glyph glyph-name="divide" unicode="&#xf7;" 
d="M0 768h640v-192h-640v192zM192 1135h256v-256h-256v256zM192 489h256v-256h-256v256z" />
    <glyph glyph-name="oslash" unicode="&#xf8;" horiz-adv-x="1024" 
d="M512 1088c-128 0 -128 -128 -128 -256v-486l238 669c-17 44 -48 73 -110 73zM280 43c-116 75 -152 221 -152 405v384c0 283 97 466 384 466c83 0 138 -14 195 -40l82 233l87 -29l-92 -257c83 -83 112 -212 112 -373v-384c0 -284 -96 -466 -384 -466c-63 0 -115 8 -158 24
l-82 -228l-76 26zM512 192c128 0 128 128 128 256v355l-209 -583c20 -17 42 -28 81 -28z" />
    <glyph glyph-name="ugrave" unicode="&#xf9;" horiz-adv-x="992" 
d="M171 1784h256l128 -384h-128zM619 138c-91 -81 -173 -156 -326 -156c-114 0 -186 93 -186 207v1091h256v-1013c0 -53 36 -90 88 -90c75 0 125 55 168 90v1013h256v-1280h-256v138z" />
    <glyph glyph-name="uacute" unicode="&#xfa;" horiz-adv-x="992" 
d="M555 1400h-128l128 384h256zM619 138c-91 -81 -173 -156 -326 -156c-114 0 -186 93 -186 207v1091h256v-1013c0 -53 36 -90 88 -90c75 0 125 55 168 90v1013h256v-1280h-256v138z" />
    <glyph glyph-name="ucircumflex" unicode="&#xfb;" horiz-adv-x="992" 
d="M491 1656l-128 -256h-192l192 384h256l192 -384h-192zM619 138c-91 -81 -173 -156 -326 -156c-114 0 -186 93 -186 207v1091h256v-1013c0 -53 36 -90 88 -90c75 0 125 55 168 90v1013h256v-1280h-256v138z" />
    <glyph glyph-name="udieresis" unicode="&#xfc;" horiz-adv-x="992" 
d="M171 1656h256v-256h-256v256zM555 1656h256v-256h-256v256zM619 138c-91 -81 -173 -156 -326 -156c-114 0 -186 93 -186 207v1091h256v-1013c0 -53 36 -90 88 -90c75 0 125 55 168 90v1013h256v-1280h-256v138z" />
    <glyph glyph-name="yacute" unicode="&#xfd;" horiz-adv-x="842" 
d="M490 1400h-128l128 384h256zM74 -128c132 0 226 56 226 186l-290 1222h256c54 -299 110 -595 161 -896c48 304 106 597 159 896h256l-320 -1344c-46 -199 -202 -256 -448 -256v192z" />
    <glyph glyph-name="thorn" unicode="&#xfe;" horiz-adv-x="1056" 
d="M706 823c0 131 -14 265 -130 265c-71 0 -145 -23 -192 -51v-805c57 -23 126 -40 192 -40c115 0 130 186 130 354v277zM644 1298c313 0 316 -372 316 -704c0 -267 -58 -612 -320 -612c-117 0 -197 73 -256 134v-526h-256v2201h256v-638c69 73 134 145 260 145z" />
    <glyph glyph-name="ydieresis" unicode="&#xff;" horiz-adv-x="842" 
d="M106 1656h256v-256h-256v256zM490 1656h256v-256h-256v256zM74 -128c132 0 226 56 226 186l-290 1222h256c54 -299 110 -595 161 -896c48 304 106 597 159 896h256l-320 -1344c-46 -199 -202 -256 -448 -256v192z" />
    <glyph glyph-name="IJ" unicode="&#x132;" horiz-adv-x="1182" 
d="M542 192c210 0 256 41 256 256v1344h256v-1344c0 -310 -72 -448 -384 -448h-128v192zM140 1792h256v-1792h-256v1792z" />
    <glyph glyph-name="OE" unicode="&#x152;" horiz-adv-x="1664" 
d="M640 1810c132 0 210 -62 256 -146v128h704v-192h-448v-576h320v-192h-320v-640h448v-192h-704v128c-44 -85 -124 -146 -256 -146c-367 0 -512 229 -512 594v640c0 365 145 594 512 594zM640 1600c-192 0 -256 -128 -256 -320v-768c0 -192 64 -320 256 -320
s256 128 256 320v782c-3 184 -69 306 -256 306z" />
    <glyph glyph-name="oe" unicode="&#x153;" horiz-adv-x="1536" 
d="M896 576c0 -148 -16 -384 128 -384c130 0 128 126 128 256h256c0 -295 -105 -466 -384 -466c-132 0 -212 61 -256 146c-44 -85 -124 -146 -256 -146c-288 0 -384 182 -384 466v384c0 284 96 466 384 466c132 0 210 -62 256 -146c43 85 126 146 257 146
c333 0 383 -282 383 -628v-30h-512v-64zM512 1088c-128 0 -128 -128 -128 -256v-384c0 -128 0 -256 128 -256s128 128 128 256v384c0 128 0 256 -128 256zM1152 768c0 134 4 320 -127 320c-132 0 -129 -188 -129 -320h256z" />
    <glyph glyph-name="Rcaron" unicode="&#x158;" horiz-adv-x="1108" 
d="M736 2296h192l-192 -384h-256l-192 384h192l128 -256zM1024 1312c0 -211 -75 -362 -224 -416l288 -896h-254l-258 832h-192v-832h-256v1792h320c365 0 576 -124 576 -480zM768 1312c0 209 -113 288 -320 288h-64v-576h64c207 0 320 79 320 288z" />
    <glyph glyph-name="rcaron" unicode="&#x159;" horiz-adv-x="680" 
d="M533 1784h192l-192 -384h-256l-192 384h192l128 -256zM373 1109c46 89 147 189 279 189c13 0 22 -2 41 -4v-283c-38 15 -92 28 -142 28c-106 0 -178 -69 -178 -175v-864h-256v1280h256v-171z" />
    <glyph glyph-name="Scaron" unicode="&#x160;" horiz-adv-x="1102" 
d="M690.5 2296h192l-192 -384h-256l-192 384h192l128 -256zM787 1280c-11 170 -75 320 -256 320c-124 0 -192 -73 -192 -195c0 -111 58 -197 128 -253l320 -256c131 -106 256 -266 256 -495c0 -266 -179 -419 -448 -419c-335 0 -493 217 -512 530l256 64
c9 -185 62 -384 256 -384c128 0 192 64 192 192c0 161 -99 245 -192 320l-320 256c-110 86 -193 228 -193 418c0 266 180 432 449 432c317 0 489 -175 512 -466z" />
    <glyph glyph-name="scaron" unicode="&#x161;" horiz-adv-x="872" 
d="M568 1784h192l-192 -384h-256l-192 384h192l128 -256zM632 896c-31 81 -82 192 -192 192c-81 0 -128 -46 -128 -128c0 -50 36 -87 64 -108l256 -192c101 -81 192 -178 192 -340c0 -224 -157 -338 -384 -338c-225 0 -341 156 -384 338l192 64c29 -81 84 -192 192 -192
c81 0 128 46 128 128c0 70 -28 115 -64 148l-256 192c-97 67 -192 148 -192 300c0 224 157 338 384 338c229 0 341 -156 384 -338z" />
    <glyph glyph-name="Ydieresis" unicode="&#x178;" horiz-adv-x="1018" 
d="M189 2168h256v-256h-256v256zM573 2168h256v-256h-256v256zM381 0v576l-384 1216h256l256 -896l256 896h256l-384 -1216v-576h-256z" />
    <glyph glyph-name="Zcaron" unicode="&#x17d;" horiz-adv-x="951" 
d="M606 2296h192l-192 -384h-256l-192 384h192l128 -256zM318 192h576v-192h-832v192l576 1408h-512v192h768v-192z" />
    <glyph glyph-name="zcaron" unicode="&#x17e;" horiz-adv-x="782" 
d="M521 1784h192l-192 -384h-256l-192 384h192l128 -256zM489 1088h-384v192h640v-192l-448 -896h448v-192h-704v192z" />
    <glyph glyph-name="florin" unicode="&#x192;" horiz-adv-x="704" 
d="M448 128c0 -244 -43 -384 -290 -384c-62 0 -94 4 -158 12v190c24 -4 62 -10 86 -10c92 0 106 68 106 160v992h-128v192h128v64c0 242 44 384 290 384c62 0 94 -4 158 -12v-190c-26 2 -61 10 -86 10c-92 0 -106 -68 -106 -160v-96h128v-192h-128v-960z" />
    <glyph glyph-name="uni01CA" unicode="&#x1ca;" horiz-adv-x="1792" 
d="M1152 192c210 0 256 41 256 256v1344h256v-1344c0 -310 -72 -448 -384 -448h-128v192zM842 0l-458 1192v-1192h-256v1792h192l448 -1108v1108h256v-1792h-182z" />
    <glyph glyph-name="uni0212" unicode="&#x212;" horiz-adv-x="1108" 
d="M288 1912c0 253 69 384 320 384c248 0 320 -132 320 -384h-192c0 121 -14 192 -128 192c-113 0 -128 -72 -128 -192h-192zM1024 1312c0 -211 -75 -362 -224 -416l288 -896h-254l-258 832h-192v-832h-256v1792h320c365 0 576 -124 576 -480zM768 1312
c0 209 -113 288 -320 288h-64v-576h64c207 0 320 79 320 288z" />
    <glyph glyph-name="circumflex" unicode="&#x2c6;" horiz-adv-x="768" 
d="M384 1664l-128 -256h-192l192 384h256l192 -384h-192z" />
    <glyph glyph-name="tilde" unicode="&#x2dc;" horiz-adv-x="960" 
d="M613 1452c-115 0 -185 87 -284 87c-37 0 -48 -25 -48 -67h-154c0 145 73 273 220 273c113 0 180 -86 281 -86c37 0 51 27 51 69h154c0 -146 -73 -276 -220 -276z" />
    <glyph glyph-name="endash" unicode="&#x2013;" horiz-adv-x="384" 
d="M0 640h384v-192h-384v192z" />
    <glyph glyph-name="emdash" unicode="&#x2014;" horiz-adv-x="384" 
d="M0 640h384v-192h-384v192z" />
    <glyph glyph-name="quoteleft" unicode="&#x2018;" horiz-adv-x="512" 
d="M384 1280h-256c0 63 -3 128 -3 189c0 175 23 323 195 323l64 -128c-93 0 -128 -39 -128 -128h128v-256z" />
    <glyph glyph-name="quoteright" unicode="&#x2019;" horiz-adv-x="512" 
d="M128 1792h256c0 -96 -1 -177 -3 -242c-5 -162 -27 -270 -189 -270l-64 128c93 0 128 39 128 128h-128v256z" />
    <glyph glyph-name="quotesinglbase" unicode="&#x201a;" horiz-adv-x="384" 
d="M62 63h256l-64 -384h-128z" />
    <glyph glyph-name="quotedblleft" unicode="&#x201c;" horiz-adv-x="896" 
d="M384 1280h-256c0 63 -3 128 -3 189c0 175 23 323 195 323l64 -128c-93 0 -128 -39 -128 -128h128v-256zM768 1280h-256c0 63 -3 128 -3 189c0 175 23 323 195 323l64 -128c-93 0 -128 -39 -128 -128h128v-256z" />
    <glyph glyph-name="quotedblright" unicode="&#x201d;" horiz-adv-x="896" 
d="M128 1792h256c0 -96 -1 -177 -3 -242c-5 -162 -27 -270 -189 -270l-64 128c93 0 128 39 128 128h-128v256zM512 1792h256c0 -96 -1 -177 -3 -242c-5 -162 -27 -270 -189 -270l-64 128c93 0 128 39 128 128h-128v256z" />
    <glyph glyph-name="quotedblbase" unicode="&#x201e;" horiz-adv-x="704" 
d="M62 64h256l-64 -384h-128zM385 64h256l-64 -384h-128z" />
    <glyph glyph-name="daggerdbl" unicode="&#x2021;" horiz-adv-x="850" 
d="M550 500v-500h-250v500h-200v200h200v350h-200v200h200v286h250v-286h201v-200h-201v-350h201v-200h-201z" />
    <glyph glyph-name="bullet" unicode="&#x2022;" horiz-adv-x="960" 
d="M221 891c0 168 96 296 265 296s265 -129 265 -296c0 -168 -96 -296 -265 -296s-265 129 -265 296z" />
    <glyph glyph-name="perthousand" unicode="&#x2030;" horiz-adv-x="2834" 
d="M444 541c-260 0 -366 222 -366 491c0 275 100 484 366 484c265 0 367 -211 367 -484c0 -271 -107 -491 -367 -491zM578 1032c0 122 -14 289 -134 289s-133 -169 -133 -289c0 -118 18 -297 133 -297c117 0 134 179 134 297zM2390 0c-260 0 -367 223 -367 492
c0 273 102 483 367 483s367 -211 367 -483s-105 -492 -367 -492zM2523 492c0 121 -15 288 -133 288c-120 0 -133 -168 -133 -288c0 -118 18 -297 133 -297c117 0 133 179 133 297zM1554 0c-260 0 -366 223 -366 492c0 274 101 483 366 483s367 -210 367 -483
c0 -272 -105 -492 -367 -492zM1688 492c0 121 -14 288 -134 288s-133 -169 -133 -288c0 -117 18 -297 133 -297c117 0 134 179 134 297zM1034 1518h219l-282 -1518h-220z" />
    <glyph glyph-name="guilsinglleft" unicode="&#x2039;" horiz-adv-x="582" 
d="M64 704l448 512v-320l-256 -255l256 -257v-320l-448 512v128z" />
    <glyph glyph-name="guilsinglright" unicode="&#x203a;" horiz-adv-x="577" 
d="M512 576l-448 -512v320l256 257l-256 255v320l448 -512v-128z" />
    <glyph glyph-name="Euro" unicode="&#x20ac;" horiz-adv-x="971" 
d="M499 205c148 0 163 181 163 336h247c0 -323 -90 -568 -415 -568s-416 221 -426 535h-68v166h68v153h-68v166h70c10 312 96 543 417 543c312 0 413 -211 416 -518h-250c0 144 -30 291 -161 291c-166 0 -168 -149 -170 -316h196v-166h-196v-153h196v-166h-194
c7 -157 19 -303 175 -303z" />
    <glyph glyph-name="trademark" unicode="&#x2122;" horiz-adv-x="2204" 
d="M649 1518v-154h-164v-678h-170v678h-163v154h497zM1139 686h-103l-137 555v-555h-158v832h242l104 -453l107 453h242v-832h-160v555z" />
  </font>
</defs>
</svg>
